Rhodes To The Top S01E01 Full Show Replay

Rhodes To The Top S01E01 1080p Full Show Free Replay DX-TV

Rhodes To The Top 

 Rhodes To The Top S01E01

 

 

 

Download Links with premium High Speed

Dopapk

 

 

Show Links

 

 

http://shrt10.com/mLwnvDAY

 

 

 

 

 

Nitroflare

 

 

Show Links

 

 

http://shrt10.com/S5MT3ct

 

 

 

 

Rapidgator

 

 

Show Links

 

 

 

Uploaded
 

Show Links

 

 

 

 

 

Watch online

 

Server 1

 

 

 

 

Rhodes To The Top 

 

 

 

 

Server-2

 

 

 

 

watch now

 

 

 

|Server-3

 

 

 

 

watch now

 

 

Uploaded By Site DX-TV.com

 

 

Open Info Show

 

 

Complete name : Rhodes.To.The.Top.S01E01.TNT.1080p.WEB.h264-HEEL.mkv
Format : Matroska
Format version : Version 4
File size : 1.63 GiB
Duration : 44 min 14 s
Overall bit rate mode : Variable
Overall bit rate : 5 283 kb/s

Rhodes To The Top 

Video
ID : 1
Format : AVC
Codec ID : V_MPEG4/ISO/AVC
Duration : 44 min 14 s
Bit rate mode : Variable
Bit rate : 4 794 kb/s
Nominal bit rate : 7 031 kb/s
Maximum bit rate : 8 000 kb/s
Width : 1 920 pixels
Height : 1 080 pixels
Display aspect ratio : 16:9
Frame rate mode : Constant
Frame rate : 59.940 (60000/1001) FPS
Standard : Component
Color space : YUV
Chroma subsampling : 4:2:0
Bit depth : 8 bits
Scan type : Progressive
Bits/(Pixel*Frame) : 0.039
Stream size : 1.48 GiB (91%)
Forced : No
Color range : Limited
Color primaries : BT.709
Transfer characteristics : BT.709
Matrix coefficients : BT.709

Rhodes To The Top 

Audio
ID : 2
Format : AC-3
Format/Info : Audio Coding 3
Commercial name : Dolby Digital
Codec ID : A_AC3
Duration : 44 min 14 s
Bit rate mode : Constant
Bit rate : 384 kb/s
Channel(s) : 6 channels
Channel layout : L R C LFE Ls Rs
Sampling rate : 48.0 kHz
Frame rate : 31.250 FPS
Bit depth : 32 bits
Compression mode : Lossy
Stream size : 122 MiB (7%)
Language : English
Service kind : Complete Main
Default : Yes
Forced : No

Rhodes To The Top 

 

Nominal bit rate : 7 031 kb/s
Maximum bit rate : 8 000 kb/s
Width : 1 920 pixels
Height : 1 080 pixels
Display aspect ratio : 16:9
Frame rate mode : Constant
Frame rate : 59.940 (60000/1001) FPS
Standard : Component
Color space : YUV
Chroma subsampling : 4:2:0
Bit depth : 8 bits
Scan type : Progressive
Bits/(Pixel*Frame) : 0.039
Stream size : 1.48 GiB (91%)
Forced : No
Color range : Limited
Color primaries : BT.709
Transfer characteristics : BT.709
Matrix coefficients : BT.709

Rhodes To The Top 

Audio
ID : 2
Format : AC-3
Format/Info : Audio Coding 3
Commercial name : Dolby Digital
Codec ID : A_AC3
Duration : 44 min 14 s
Bit rate mode : Constant
Bit rate : 384 kb/s
Channel(s) : 6 channels
Channel layout : L R C LFE Ls Rs
Sampling rate : 48.0 kHz
Frame rate : 31.250 FPS
Bit depth : 32 bits
Compression mode : Lossy
Stream size : 122 MiB (7%)
Language : English
Service kind : Complete Main
Default : Yes
Forced : No

Rhodes To The Top 

 

 

https://dx-tv.com/

 

 

 

 

 

You May Also Like

Leave a Reply

Your email address will not be published. Required fields are marked *

This site uses Akismet to reduce spam. Learn how your comment data is processed.