PROGRESS Wrestling 2020 01 19 Ch 101 1080p Online

PROGRESS Wrestling 2020 01 19 Chapter 101 1080p Online DX-TV

 

 

PROGRESS Wrestling

 

 

 

 

dx-tv.com

 

 

 

 

PROGRESS Wrestling 2020 01 19 Ch 101 1080p Online

 

 

 

 

 

Complete name : PROGRESS.Wrestling.2020.01.19.Chapter.101.Dalmations.1080p.WEB.h264-NCMP.mp4
Format : MPEG-4
Format profile : Base Media
Codec ID : isom
File size : 4.56 GiB
Duration : 2 h 41 min
Overall bit rate : 4 032 kb/s
Writing application : Lavf57.72.101

Video
ID : 1
Format : AVC
Duration : 2 h 41 min
Duration_FirstFrame : -40 ms
Bit rate : 3 832 kb/s
Width : 1 920 pixels
Height : 1 080 pixels
Display aspect ratio : 16:9
Frame rate mode : Variable
Frame rate : 25.000 FPS
Minimum frame rate : 25.000 FPS
Maximum frame rate : 25.007 FPS
Color space : YUV
Chroma subsampling : 4:2:0
Bit depth : 8 bits
Scan type : Progressive
Bits/(Pixel*Frame) : 0.074
Stream size : 4.34 GiB (95%)
Codec configuration box : avcC

Audio
ID : 2
Format : AAC LC
Format/Info : Advanced Audio Codec Low Complexity
Codec ID : mp4a-40-2
Duration : 2 h 41 min
Bit rate mode : Constant
Bit rate : 192 kb/s
Channel(s) : 2 channels
Channel layout : L R
Sampling rate : 48.0 kHz
Frame rate : 46.875 FPS (1024 SPF)
Compression mode : Lossy
Stream size : 222 MiB (5%)
Default : Yes
Alternate group : 1

 

Dark Match
Warren Banks defeats Rudy Ryan (7:20)
PROGRESS Unified World Title Qualifying Match
Ilja Dragunov defeats Mark Andrews (w/Eddie Dennis) (0:08)
Tag Team Match
Pretty Deadly (Lewis Howley & Sam Stoker) defeat More Than Hype (Darren Kearney & Nathan Martin) (14:13)
PROGRESS Unified World Title Qualifying Match
Kyle Fletcher defeats LJ Cleary (16:30)
PROGRESS Proteus Title / PROGRESS Unified World Title Qualifying Match
Paul Robinson (c) defeats A-Kid (9:44)
Six Man Tag Team Match
Destination Everywhere (Charlie Carter, Oisin Delaney & The OJMO) defeat Do Not Resuscitate (Danny Duggan, Spike Trivet & William Eaver) (14:22)
PROGRESS Women’s Title Match
Jinny (c) defeats Mercedez Blaze (5:55)

 

 

 

 

Watch online

 

Server 1

 

 

 

 

 

 

 

 

 

 

 

Server 2

 

 

 

 

 

 

 

 

 

 

Server–3

 

 

 

 

 

 

 

 

 

PROGRESS Wrestling 2020 01 19 Ch 101 1080p Online

 

 

 

Uploaded By Site DX-TV.com

 

 

 

 

 

Download VIP Members FTP server Download 1 Link and Free Links 

 

 

 

Limited Time will be removed after 90 days if you need available again pm email admin

 

[member]  

 

FTP Link Download high speed

[/member]  

1fichier.com 

 

 

dl.free.fr

 

 

earn4files.com

 

 

filerio.in

 

 

Download with premium account Links 

 

 

nitroflare.com

 

 

rapidgator.net

 

 

uploaded.net

 

 

 

 

 

 

 

 

 

WE need Staff/ Uploader/ Capper best quality For DX-TV
For More INFO Send PM for Admin on Email : [email protected]

X