WWE Friday Night SmackDown 2020 01 24 Online

WWE Friday Night SmackDown 2020 01 24 Online NWCHD DX-TV

 

 

WWE SmackDown

 

 

 

 

dx-tv.com

 

 

 

 

WWE Friday Night SmackDown 2020 01 24 Online

 

 

 

 

 

Complete name : WWE.Friday.Night.SmackDown.2020.01.24.HDTV.x264-NWCHD.mp4
Format : MPEG-4
Format profile : Base Media
Codec ID : isom
File size : 954 MiB
Duration : 1 h 23 min
Overall bit rate : 1 596 kb/s
Writing application : Lavf58.27.103

Video
ID : 1
Format : AVC
Duration : 1 h 23 min
Bit rate : 1 400 kb/s
Width : 704 pixels
Height : 400 pixels
Display aspect ratio : 16:9
Frame rate mode : Variable
Frame rate : 29.970 (30000/1001) FPS
Minimum frame rate : 29.155 FPS
Maximum frame rate : 29.970 FPS
Color space : YUV
Chroma subsampling : 4:2:0
Bit depth : 8 bits
Scan type : Progressive
Bits/(Pixel*Frame) : 0.166
Stream size : 834 MiB (87%)
Color primaries : BT.709
Transfer characteristics : BT.709
Matrix coefficients : BT.709
Codec configuration box : avcC

Audio
ID : 2
Format : AAC LC
Format/Info : Advanced Audio Codec Low Complexity
Codec ID : mp4a-40-2
Duration : 1 h 23 min
Bit rate mode : Constant
Bit rate : 192 kb/s
Channel(s) : 2 channels
Channel layout : L R
Sampling rate : 48.0 kHz
Frame rate : 46.875 FPS (1024 SPF)
Compression mode : Lossy
Stream size : 115 MiB (12%)
Title : Stereo
Default : Yes
Alternate group : 1

 

 

 

 

 

 

Watch online

 

 

Waiting finish converting video

 

 

Server 1

 

 

watch now

 

 

WWE Friday Night SmackDown 2020 01 24 Online

 

 

 

Uploaded By Site DX-TV.com

 

 

 

 

 

Download VIP Members FTP server Download 1 Link and Free Links 

 

 

 

Limited Time will be removed after 90 days if you need available again pm email admin

 

[member]  

FTP Link Download high speed

[/member]

1fichier.com 

 

 

dailyuploads.net

 

 

DDL.to

 

 

dl.free.fr

 

 

earn4files.com

 

 

filerio.in

 

 

katfile.com

 

 

rockfile.co

 

 

Ubloadbank.com

 

 

 

Download with premium account Links 

 

 

nitroflare.com

 

 

rapidgator.net

 

 

uploaded.net