NXT TakeOver 31 2020 720p WWE Free Online

Watch NXT TakeOver 31 2020 720p WWE Free Online DX-TV

 

WWE NXT TakeOver 31

 

 WWE NXT TakeOver 31
 


 

 

NXT TakeOver 31 2020 720p WWE Free Online

 

 

 

 

Complete name : WWE.NXT.TakeOver.31.2020.720p.WEB.h264-HEEL.mp4
Format : MPEG-4
Format profile : Base Media
Codec ID : isom
File size : 4.36 GiB
Duration : 2 h 25 min
Overall bit rate : 4 286 kb/s
Writing application : Lavf58.32.104

WWE NXT TakeOver 31

Video
ID : 1
Format : AVC
Duration : 2 h 25 min
Bit rate : 4 148 kb/s
Width : 1 280 pixels
Height : 720 pixels
Display aspect ratio : 16:9
Frame rate mode : Variable
Frame rate : 30.000 FPS
Minimum frame rate : 29.412 FPS
Maximum frame rate : 30.303 FPS
Color space : YUV
Chroma subsampling : 4:2:0
Bit depth : 8 bits
Scan type : Progressive
Bits/(Pixel*Frame) : 0.150
Stream size : 4.22 GiB (97%)
Codec configuration box : avcC

WWE NXT TakeOver 31

Audio
ID : 2
Format : AAC LC
Format/Info : Advanced Audio
Codec ID : mp4a-40-2
Duration : 2 h 25 min
Bit rate mode : Constant
Bit rate : 125 kb/s
Channel(s) : 2 channels
Channel layout : L R
Sampling rate : 48.0 kHz
Frame rate : 46.875 FPS (1024 SPF)
Compression mode : Lossy
Stream size : 131 MiB (3%)
Default : Yes
Alternate group : 1

Text #1
ID : 1-CC1
Format : EIA-608
Muxing mode : SCTE 128 / DTVCC Transport
Muxing mode, more info : Muxed in Video #1
Duration : 2 h 25 min
Bit rate mode : Constant
Stream size : 0.00 Byte (0%)
CaptionServiceName : CC1

WWE NXT TakeOver 31

Text #2
ID : 1-CC3
Format : EIA-608
Muxing mode : SCTE 128 / DTVCC Transport
Muxing mode, more info : Muxed in Video #1
Duration : 2 h 25 min
Bit rate mode : Constant
Stream size : 0.00 Byte (0%)
CaptionServiceName : CC3

Text #3
ID : 1-T4
Format : EIA-608
Muxing mode : SCTE 128 / DTVCC Transport
Muxing mode, more info : Muxed in Video #1
Duration : 2 h 25 min
Bit rate mode : Constant
Stream size : 0.00 Byte (0%)
CaptionServiceName : T4

Text #4
ID : 1-1
Format : EIA-708
Muxing mode : SCTE 128 / DTVCC Transport
Muxing mode, more info : Muxed in Video #1
Duration : 2 h 25 min
Bit rate mode : Constant
Stream size : 0.00 Byte (0%)

Text #5
ID : 1-2
Format : EIA-708
Muxing mode : SCTE 128 / DTVCC Transport
Muxing mode, more info : Muxed in Video #1
Duration : 2 h 25 min
Bit rate mode : Constant
Stream size : 0.00 Byte (0%)

 

 

 

NXT TakeOver 31 2020 720p WWE Free Online

 

 

 

 

Watch online

 

 

 

 

 

Server 1

 

 

 

 

watch now

 

 

 

 

Server-2

 

 

 

WWE NXT TakeOver 31

 

 

 

 

Server-3

 

 

 

watch now

 

 

 

 

Uploaded By Site DX-TV.com

 

 

 

 

Download Free Links with normal and high Speed [ more 14 hosts ]  

 

 

 

 

http://shrt10.com/2aVYX6
http://shrt10.com/UU2hn0
http://shrt10.com/JRJIq
http://shrt10.com/PObL1d2Gu
http://shrt10.com/UCJEa4tn
http://shrt10.com/I8eKgn
http://shrt10.com/LXGu2kEfM
http://shrt10.com/AqQaM4K
http://shrt10.com/oHNSmzzvF

 

 

 

Download Links with premium High Speed   

 

 

 

 

nitroflare.com

 

 

 

rapidgator.net

 

 

 

uploaded.net

 

 

 

uploadgig.com

 

 

 

 

 

dx-tv.com

 

urlfree.net

Leave a Reply

Your email address will not be published. Required fields are marked *

This site uses Akismet to reduce spam. Learn how your comment data is processed.