Watch NXT TakeOver 31 2020 WWE Full Show Free

 NXT TakeOver 31 2020 WWE Full Show Free DX-TV

 

WWE NXT TakeOver 31

 

 WWE NXT TakeOver 31

 

Watch NXT TakeOver 31 2020 WWE Full Show Free

 

 

Complete name : WWE.NXT.TakeOver.31.2020.WEB.h264-HEEL.mp4
Format : MPEG-4
Format profile : Base Media
Codec ID : isom
File size : 1.63 GiB
Duration : 2 h 25 min
Overall bit rate mode : Variable
Overall bit rate : 1 601 kb/s
Writing application : Lavf58.32.104

WWE NXT TakeOver 31

Video
ID : 1
Format : AVC
Codec ID/Info : Advanced
Duration : 2 h 25 min
Bit rate mode : Variable
Bit rate : 1 468 kb/s
Maximum bit rate : 1 663 kb/s
Width : 896 pixels
Height : 504 pixels
Display aspect ratio : 16:9
Frame rate mode : Variable
Frame rate : 30.000 FPS
Minimum frame rate : 29.412 FPS
Maximum frame rate : 30.303 FPS
Standard : NTSC
Color space : YUV
Chroma subsampling : 4:2:0
Bit depth : 8 bits
Scan type : Progressive
Bits/(Pixel*Frame) : 0.108
Stream size : 1.49 GiB (92%)
Color range : Limited
Color primaries : BT.709
Transfer characteristics : BT.709
Matrix coefficients : BT.709
Codec configuration box : avcC

WWE NXT TakeOver 31

Audio
ID : 2
Format : AAC LC
Format/Info : Advanced Audio Codec
Codec ID : mp4a-40-2
Duration : 2 h 25 min
Bit rate mode : Variable
Bit rate : 125 kb/s
Maximum bit rate : 131 kb/s
Channel(s) : 2 channels
Channel layout : L R
Sampling rate : 48.0 kHz
Frame rate : 46.875 FPS (1024 SPF)
Compression mode : Lossy
Stream size : 131 MiB (8%)
Default : Yes
Alternate group : 1

Text #1
ID : 1-CC1
Format : EIA-608
Muxing mode : SCTE 128 / DTVCC Transport
Muxing mode, more info : Muxed in Video #1
Duration : 2 h 25 min
Bit rate mode : Constant
Stream size : 0.00 Byte (0%)
CaptionServiceName : CC1

WWE NXT TakeOver 31

Text #2
ID : 1-CC3
Format : EIA-608
Muxing mode : SCTE 128 / DTVCC Transport
Muxing mode, more info : Muxed in Video #1
Duration : 2 h 25 min
Bit rate mode : Constant
Stream size : 0.00 Byte (0%)
CaptionServiceName : CC3

Text #3
ID : 1-1
Format : EIA-708
Muxing mode : SCTE 128 / DTVCC Transport
Muxing mode, more info : Muxed in Video #1
Duration : 2 h 25 min
Bit rate mode : Constant
Stream size : 0.00 Byte (0%)

Text #4
ID : 1-2
Format : EIA-708
Muxing mode : SCTE 128 / DTVCC Transport
Muxing mode, more info : Muxed in Video #1
Duration : 2 h 25 min
Bit rate mode : Constant
Stream size : 0.00 Byte (0%)

 

 

 

Watch NXT TakeOver 31 2020 WWE Full Show Free

 

 

 

 

Watch online

 

 

 

 

 

Server 1

 

 

 

 

WWE NXT TakeOver 31

 

 

 

 

Server-2

 

 

 

watch now

 

 

 

 

Server-3

 

 

 

WWE NXT TakeOver 31

 

 

 

 

Uploaded By Site DX-TV.com

 

 

 

 

Download Free Links with normal and high Speed [ more 14 hosts ]  

 

 

 

 

http://shrt10.com/xbBUcIru
http://shrt10.com/R8EEX5
http://shrt10.com/dqQvLYfz
http://shrt10.com/zAlY2J
http://shrt10.com/51c81
http://shrt10.com/aC0BOq
http://shrt10.com/JeCJEC
http://shrt10.com/NciVEWa
http://shrt10.com/1kB8k
http://shrt10.com/EunVKiQ
http://shrt10.com/ToY7U
http://shrt10.com/PqPXS8By
http://shrt10.com/vjrzStVN9

 

 

 

Download Links with premium High Speed   

 

 

 

 

nitroflare.com

 

 

 

rapidgator.net

 

 

 

uploaded.net

 

 

 

uploadgig.com

 

 

 

 

 

dx-tv.com

 

urlfree.net

Leave a Reply

Your email address will not be published. Required fields are marked *

This site uses Akismet to reduce spam. Learn how your comment data is processed.