NWA Powerrr Episode 37 Online Free Replay

NWA Powerrr Episode 37 Online Free Replay DX-TV

NWA Powerrr Episode 37

 NWA Powerrr Episode 37

 

 

 

Download Links with High Speed


 

Dopapk

 

 

Show Links

 

http://shrt10.com/pG4B98

 

[collapse]

 

 

Nitroflare

 

 

Show Links

 

http://shrt10.com/zNHfl7

 

[collapse]

 

 

Rapidgator

 

 

Show Links

 

http://shrt10.com/M8zjzsuL

 

[collapse]

 

 

Uploaded

 

 

Show Links

 

http://shrt10.com/Lb99C

 

[collapse]

 

 

Watch online

 

Server 1

 

 

 

 

NWA Powerrr Episode 37

 

 

 

 

Server-2

 

 

 

 

watch now

 

 

 

|Server-3

 

 

 

 

watch now

 

 

Uploaded By Site DX-TV.com

 

 

Show Info This Show

NWA Powerrr Episode 37

 

Complete name : NWA Powerrr Episode 37.mp4
Format : MPEG-4
Format profile : Base Media
Codec ID : isom
File size : 1.48 GiB
Duration : 55 min 5 s
Overall bit rate : 3 849 kb/s

Video
ID : 1
Format : AVC
Format/Info : Advanced Video
Duration : 55 min 5 s
Source duration : 55 min 5 s
Bit rate : 3 592 kb/s
Nominal bit rate : 4 800 kb/s
Maximum bit rate : 3 744 kb/s
Width : 1 920 pixels
Height : 1 080 pixels
Display aspect ratio : 16:9
Frame rate mode : Constant
Frame rate : 29.970 (30000/1001) FPS
Color space : YUV
Chroma subsampling : 4:2:0
Bit depth : 8 bits
Scan type : Progressive
Bits/(Pixel*Frame) : 0.058
Stream size : 1.38 GiB (93%)
Source stream size : 1.44 GiB (97%)
Writing library : x264 core 160
Codec configuration box : avc

NWA Powerrr Episode 37

Audio
ID : 2
Format : AAC LC
Format/Info : Advanced Audio
Codec ID : mp4a-40-2
Duration : 55 min 5 s
Bit rate mode : Constant
Bit rate : 96.0 kb/s
Channel(s) : 2 channels
Channel layout : L R
Sampling rate : 48.0 kHz
Frame rate : 46.875 FPS (1024 SPF)
Compression mode : Lossy
Stream size : 38.0 MiB (3%)
Default : Yes
Alternate group : 1

NWA Powerrr Episode 37

Complete name : NWA Powerrr Episode 37.mp4
Format : MPEG-4
Format profile : Base Media
Codec ID : isom
File size : 1.48 GiB
Duration : 55 min 5 s
Overall bit rate : 3 849 kb/s

Video
ID : 1
Format : AVC
Format/Info : Advanced Video
Duration : 55 min 5 s
Source duration : 55 min 5 s
Bit rate : 3 592 kb/s
Nominal bit rate : 4 800 kb/s
Maximum bit rate : 3 744 kb/s
Width : 1 920 pixels
Height : 1 080 pixels
Display aspect ratio : 16:9
Frame rate mode : Constant
Frame rate : 29.970 (30000/1001) FPS
Color space : YUV
Chroma subsampling : 4:2:0
Bit depth : 8 bits
Scan type : Progressive
Bits/(Pixel*Frame) : 0.058
Stream size : 1.38 GiB (93%)
Source stream size : 1.44 GiB (97%)
Writing library : x264 core 160
Codec configuration box : avc

NWA Powerrr Episode 37

Audio
ID : 2
Format : AAC LC
Format/Info : Advanced Audio
Codec ID : mp4a-40-2
Duration : 55 min 5 s
Bit rate mode : Constant
Bit rate : 96.0 kb/s
Channel(s) : 2 channels
Channel layout : L R
Sampling rate : 48.0 kHz
Frame rate : 46.875 FPS (1024 SPF)
Compression mode : Lossy
Stream size : 38.0 MiB (3%)
Default : Yes
Alternate group : 1

NWA Powerrr Episode 37

Complete name : NWA Powerrr Episode 37.mp4
Format : MPEG-4
Format profile : Base Media
Codec ID : isom
File size : 1.48 GiB
Duration : 55 min 5 s
Overall bit rate : 3 849 kb/s

Video
ID : 1
Format : AVC
Format/Info : Advanced Video
Duration : 55 min 5 s
Source duration : 55 min 5 s
Bit rate : 3 592 kb/s
Nominal bit rate : 4 800 kb/s
Maximum bit rate : 3 744 kb/s
Width : 1 920 pixels
Height : 1 080 pixels
Display aspect ratio : 16:9
Frame rate mode : Constant
Frame rate : 29.970 (30000/1001) FPS
Color space : YUV
Chroma subsampling : 4:2:0
Bit depth : 8 bits
Scan type : Progressive
Bits/(Pixel*Frame) : 0.058
Stream size : 1.38 GiB (93%)
Source stream size : 1.44 GiB (97%)
Writing library : x264 core 160
Codec configuration box : avc

NWA Powerrr Episode 37

Audio
ID : 2
Format : AAC LC
Format/Info : Advanced Audio
Codec ID : mp4a-40-2
Duration : 55 min 5 s
Bit rate mode : Constant
Bit rate : 96.0 kb/s
Channel(s) : 2 channels
Channel layout : L R
Sampling rate : 48.0 kHz
Frame rate : 46.875 FPS (1024 SPF)
Compression mode : Lossy
Stream size : 38.0 MiB (3%)
Default : Yes
Alternate group : 1

NWA Powerrr Episode 37

Complete name : NWA Powerrr Episode 37.mp4
Format : MPEG-4
Format profile : Base Media
Codec ID : isom
File size : 1.48 GiB
Duration : 55 min 5 s
Overall bit rate : 3 849 kb/s

Video
ID : 1
Format : AVC
Format/Info : Advanced Video
Duration : 55 min 5 s
Source duration : 55 min 5 s
Bit rate : 3 592 kb/s
Nominal bit rate : 4 800 kb/s
Maximum bit rate : 3 744 kb/s
Width : 1 920 pixels
Height : 1 080 pixels
Display aspect ratio : 16:9
Frame rate mode : Constant
Frame rate : 29.970 (30000/1001) FPS
Color space : YUV
Chroma subsampling : 4:2:0
Bit depth : 8 bits
Scan type : Progressive
Bits/(Pixel*Frame) : 0.058
Stream size : 1.38 GiB (93%)
Source stream size : 1.44 GiB (97%)
Writing library : x264 core 160
Codec configuration box : avc

NWA Powerrr Episode 37

Audio
ID : 2
Format : AAC LC
Format/Info : Advanced Audio
Codec ID : mp4a-40-2
Duration : 55 min 5 s
Bit rate mode : Constant
Bit rate : 96.0 kb/s
Channel(s) : 2 channels
Channel layout : L R
Sampling rate : 48.0 kHz
Frame rate : 46.875 FPS (1024 SPF)
Compression mode : Lossy
Stream size : 38.0 MiB (3%)
Default : Yes
Alternate group : 1

NWA Powerrr Episode 37

Complete name : NWA Powerrr Episode 37.mp4
Format : MPEG-4
Format profile : Base Media
Codec ID : isom
File size : 1.48 GiB
Duration : 55 min 5 s
Overall bit rate : 3 849 kb/s

Video
ID : 1
Format : AVC
Format/Info : Advanced Video
Duration : 55 min 5 s
Source duration : 55 min 5 s
Bit rate : 3 592 kb/s
Nominal bit rate : 4 800 kb/s
Maximum bit rate : 3 744 kb/s
Width : 1 920 pixels
Height : 1 080 pixels
Display aspect ratio : 16:9
Frame rate mode : Constant
Frame rate : 29.970 (30000/1001) FPS
Color space : YUV
Chroma subsampling : 4:2:0
Bit depth : 8 bits
Scan type : Progressive
Bits/(Pixel*Frame) : 0.058
Stream size : 1.38 GiB (93%)
Source stream size : 1.44 GiB (97%)
Writing library : x264 core 160
Codec configuration box : avc

NWA Powerrr Episode 37

Audio
ID : 2
Format : AAC LC
Format/Info : Advanced Audio
Codec ID : mp4a-40-2
Duration : 55 min 5 s
Bit rate mode : Constant
Bit rate : 96.0 kb/s
Channel(s) : 2 channels
Channel layout : L R
Sampling rate : 48.0 kHz
Frame rate : 46.875 FPS (1024 SPF)
Compression mode : Lossy
Stream size : 38.0 MiB (3%)
Default : Yes
Alternate group : 1

NWA Powerrr Episode 37

Complete name : NWA Powerrr Episode 37.mp4
Format : MPEG-4
Format profile : Base Media
Codec ID : isom
File size : 1.48 GiB
Duration : 55 min 5 s
Overall bit rate : 3 849 kb/s

Video
ID : 1
Format : AVC
Format/Info : Advanced Video
Duration : 55 min 5 s
Source duration : 55 min 5 s
Bit rate : 3 592 kb/s
Nominal bit rate : 4 800 kb/s
Maximum bit rate : 3 744 kb/s
Width : 1 920 pixels
Height : 1 080 pixels
Display aspect ratio : 16:9
Frame rate mode : Constant
Frame rate : 29.970 (30000/1001) FPS
Color space : YUV
Chroma subsampling : 4:2:0
Bit depth : 8 bits
Scan type : Progressive
Bits/(Pixel*Frame) : 0.058
Stream size : 1.38 GiB (93%)
Source stream size : 1.44 GiB (97%)
Writing library : x264 core 160
Codec configuration box : avc

NWA Powerrr Episode 37

Audio
ID : 2
Format : AAC LC
Format/Info : Advanced Audio
Codec ID : mp4a-40-2
Duration : 55 min 5 s
Bit rate mode : Constant
Bit rate : 96.0 kb/s
Channel(s) : 2 channels
Channel layout : L R
Sampling rate : 48.0 kHz
Frame rate : 46.875 FPS (1024 SPF)
Compression mode : Lossy
Stream size : 38.0 MiB (3%)
Default : Yes
Alternate group : 1

NWA Powerrr Episode 37

Complete name : NWA Powerrr Episode 37.mp4
Format : MPEG-4
Format profile : Base Media
Codec ID : isom
File size : 1.48 GiB
Duration : 55 min 5 s
Overall bit rate : 3 849 kb/s

Video
ID : 1
Format : AVC
Format/Info : Advanced Video
Duration : 55 min 5 s
Source duration : 55 min 5 s
Bit rate : 3 592 kb/s
Nominal bit rate : 4 800 kb/s
Maximum bit rate : 3 744 kb/s
Width : 1 920 pixels
Height : 1 080 pixels
Display aspect ratio : 16:9
Frame rate mode : Constant
Frame rate : 29.970 (30000/1001) FPS
Color space : YUV
Chroma subsampling : 4:2:0
Bit depth : 8 bits
Scan type : Progressive
Bits/(Pixel*Frame) : 0.058
Stream size : 1.38 GiB (93%)
Source stream size : 1.44 GiB (97%)
Writing library : x264 core 160
Codec configuration box : avc

NWA Powerrr Episode 37

Audio
ID : 2
Format : AAC LC
Format/Info : Advanced Audio
Codec ID : mp4a-40-2
Duration : 55 min 5 s
Bit rate mode : Constant
Bit rate : 96.0 kb/s
Channel(s) : 2 channels
Channel layout : L R
Sampling rate : 48.0 kHz
Frame rate : 46.875 FPS (1024 SPF)
Compression mode : Lossy
Stream size : 38.0 MiB (3%)
Default : Yes
Alternate group : 1

NWA Powerrr Episode 37

Complete name : NWA Powerrr Episode 37.mp4
Format : MPEG-4
Format profile : Base Media
Codec ID : isom
File size : 1.48 GiB
Duration : 55 min 5 s
Overall bit rate : 3 849 kb/s

Video
ID : 1
Format : AVC
Format/Info : Advanced Video
Duration : 55 min 5 s
Source duration : 55 min 5 s
Bit rate : 3 592 kb/s
Nominal bit rate : 4 800 kb/s
Maximum bit rate : 3 744 kb/s
Width : 1 920 pixels
Height : 1 080 pixels
Display aspect ratio : 16:9
Frame rate mode : Constant
Frame rate : 29.970 (30000/1001) FPS
Color space : YUV
Chroma subsampling : 4:2:0
Bit depth : 8 bits
Scan type : Progressive
Bits/(Pixel*Frame) : 0.058
Stream size : 1.38 GiB (93%)
Source stream size : 1.44 GiB (97%)
Writing library : x264 core 160
Codec configuration box : avc

NWA Powerrr Episode 37

Audio
ID : 2
Format : AAC LC
Format/Info : Advanced Audio
Codec ID : mp4a-40-2
Duration : 55 min 5 s
Bit rate mode : Constant
Bit rate : 96.0 kb/s
Channel(s) : 2 channels
Channel layout : L R
Sampling rate : 48.0 kHz
Frame rate : 46.875 FPS (1024 SPF)
Compression mode : Lossy
Stream size : 38.0 MiB (3%)
Default : Yes
Alternate group : 1

NWA Powerrr Episode 37

Complete name : NWA Powerrr Episode 37.mp4
Format : MPEG-4
Format profile : Base Media
Codec ID : isom
File size : 1.48 GiB
Duration : 55 min 5 s
Overall bit rate : 3 849 kb/s

Video
ID : 1
Format : AVC
Format/Info : Advanced Video
Duration : 55 min 5 s
Source duration : 55 min 5 s
Bit rate : 3 592 kb/s
Nominal bit rate : 4 800 kb/s
Maximum bit rate : 3 744 kb/s
Width : 1 920 pixels
Height : 1 080 pixels
Display aspect ratio : 16:9
Frame rate mode : Constant
Frame rate : 29.970 (30000/1001) FPS
Color space : YUV
Chroma subsampling : 4:2:0
Bit depth : 8 bits
Scan type : Progressive
Bits/(Pixel*Frame) : 0.058
Stream size : 1.38 GiB (93%)
Source stream size : 1.44 GiB (97%)
Writing library : x264 core 160
Codec configuration box : avc

NWA Powerrr Episode 37

Audio
ID : 2
Format : AAC LC
Format/Info : Advanced Audio
Codec ID : mp4a-40-2
Duration : 55 min 5 s
Bit rate mode : Constant
Bit rate : 96.0 kb/s
Channel(s) : 2 channels
Channel layout : L R
Sampling rate : 48.0 kHz
Frame rate : 46.875 FPS (1024 SPF)
Compression mode : Lossy
Stream size : 38.0 MiB (3%)
Default : Yes
Alternate group : 1

NWA Powerrr Episode 37

Complete name : NWA Powerrr Episode 37.mp4
Format : MPEG-4
Format profile : Base Media
Codec ID : isom
File size : 1.48 GiB
Duration : 55 min 5 s
Overall bit rate : 3 849 kb/s

Video
ID : 1
Format : AVC
Format/Info : Advanced Video
Duration : 55 min 5 s
Source duration : 55 min 5 s
Bit rate : 3 592 kb/s
Nominal bit rate : 4 800 kb/s
Maximum bit rate : 3 744 kb/s
Width : 1 920 pixels
Height : 1 080 pixels
Display aspect ratio : 16:9
Frame rate mode : Constant
Frame rate : 29.970 (30000/1001) FPS
Color space : YUV
Chroma subsampling : 4:2:0
Bit depth : 8 bits
Scan type : Progressive
Bits/(Pixel*Frame) : 0.058
Stream size : 1.38 GiB (93%)
Source stream size : 1.44 GiB (97%)
Writing library : x264 core 160
Codec configuration box : avc

NWA Powerrr Episode 37

Audio
ID : 2
Format : AAC LC
Format/Info : Advanced Audio
Codec ID : mp4a-40-2
Duration : 55 min 5 s
Bit rate mode : Constant
Bit rate : 96.0 kb/s
Channel(s) : 2 channels
Channel layout : L R
Sampling rate : 48.0 kHz
Frame rate : 46.875 FPS (1024 SPF)
Compression mode : Lossy
Stream size : 38.0 MiB (3%)
Default : Yes
Alternate group : 1

NWA Powerrr Episode 37

Complete name : NWA Powerrr Episode 37.mp4
Format : MPEG-4
Format profile : Base Media
Codec ID : isom
File size : 1.48 GiB
Duration : 55 min 5 s
Overall bit rate : 3 849 kb/s

Video
ID : 1
Format : AVC
Format/Info : Advanced Video
Duration : 55 min 5 s
Source duration : 55 min 5 s
Bit rate : 3 592 kb/s
Nominal bit rate : 4 800 kb/s
Maximum bit rate : 3 744 kb/s
Width : 1 920 pixels
Height : 1 080 pixels
Display aspect ratio : 16:9
Frame rate mode : Constant
Frame rate : 29.970 (30000/1001) FPS
Color space : YUV
Chroma subsampling : 4:2:0
Bit depth : 8 bits
Scan type : Progressive
Bits/(Pixel*Frame) : 0.058
Stream size : 1.38 GiB (93%)
Source stream size : 1.44 GiB (97%)
Writing library : x264 core 160
Codec configuration box : avc

NWA Powerrr Episode 37

Audio
ID : 2
Format : AAC LC
Format/Info : Advanced Audio
Codec ID : mp4a-40-2
Duration : 55 min 5 s
Bit rate mode : Constant
Bit rate : 96.0 kb/s
Channel(s) : 2 channels
Channel layout : L R
Sampling rate : 48.0 kHz
Frame rate : 46.875 FPS (1024 SPF)
Compression mode : Lossy
Stream size : 38.0 MiB (3%)
Default : Yes
Alternate group : 1

NWA Powerrr Episode 37

Complete name : NWA Powerrr Episode 37.mp4
Format : MPEG-4
Format profile : Base Media
Codec ID : isom
File size : 1.48 GiB
Duration : 55 min 5 s
Overall bit rate : 3 849 kb/s

Video
ID : 1
Format : AVC
Format/Info : Advanced Video
Duration : 55 min 5 s
Source duration : 55 min 5 s
Bit rate : 3 592 kb/s
Nominal bit rate : 4 800 kb/s
Maximum bit rate : 3 744 kb/s
Width : 1 920 pixels
Height : 1 080 pixels
Display aspect ratio : 16:9
Frame rate mode : Constant
Frame rate : 29.970 (30000/1001) FPS
Color space : YUV
Chroma subsampling : 4:2:0
Bit depth : 8 bits
Scan type : Progressive
Bits/(Pixel*Frame) : 0.058
Stream size : 1.38 GiB (93%)
Source stream size : 1.44 GiB (97%)
Writing library : x264 core 160
Codec configuration box : avc

NWA Powerrr Episode 37

Audio
ID : 2
Format : AAC LC
Format/Info : Advanced Audio
Codec ID : mp4a-40-2
Duration : 55 min 5 s
Bit rate mode : Constant
Bit rate : 96.0 kb/s
Channel(s) : 2 channels
Channel layout : L R
Sampling rate : 48.0 kHz
Frame rate : 46.875 FPS (1024 SPF)
Compression mode : Lossy
Stream size : 38.0 MiB (3%)
Default : Yes
Alternate group : 1

NWA Powerrr Episode 37

Complete name : NWA Powerrr Episode 37.mp4
Format : MPEG-4
Format profile : Base Media
Codec ID : isom
File size : 1.48 GiB
Duration : 55 min 5 s
Overall bit rate : 3 849 kb/s

Video
ID : 1
Format : AVC
Format/Info : Advanced Video
Duration : 55 min 5 s
Source duration : 55 min 5 s
Bit rate : 3 592 kb/s
Nominal bit rate : 4 800 kb/s
Maximum bit rate : 3 744 kb/s
Width : 1 920 pixels
Height : 1 080 pixels
Display aspect ratio : 16:9
Frame rate mode : Constant
Frame rate : 29.970 (30000/1001) FPS
Color space : YUV
Chroma subsampling : 4:2:0
Bit depth : 8 bits
Scan type : Progressive
Bits/(Pixel*Frame) : 0.058
Stream size : 1.38 GiB (93%)
Source stream size : 1.44 GiB (97%)
Writing library : x264 core 160
Codec configuration box : avc

NWA Powerrr Episode 37

Audio
ID : 2
Format : AAC LC
Format/Info : Advanced Audio
Codec ID : mp4a-40-2
Duration : 55 min 5 s
Bit rate mode : Constant
Bit rate : 96.0 kb/s
Channel(s) : 2 channels
Channel layout : L R
Sampling rate : 48.0 kHz
Frame rate : 46.875 FPS (1024 SPF)
Compression mode : Lossy
Stream size : 38.0 MiB (3%)
Default : Yes
Alternate group : 1

NWA Powerrr Episode 37

Complete name : NWA Powerrr Episode 37.mp4
Format : MPEG-4
Format profile : Base Media
Codec ID : isom
File size : 1.48 GiB
Duration : 55 min 5 s
Overall bit rate : 3 849 kb/s

Video
ID : 1
Format : AVC
Format/Info : Advanced Video
Duration : 55 min 5 s
Source duration : 55 min 5 s
Bit rate : 3 592 kb/s
Nominal bit rate : 4 800 kb/s
Maximum bit rate : 3 744 kb/s
Width : 1 920 pixels
Height : 1 080 pixels
Display aspect ratio : 16:9
Frame rate mode : Constant
Frame rate : 29.970 (30000/1001) FPS
Color space : YUV
Chroma subsampling : 4:2:0
Bit depth : 8 bits
Scan type : Progressive
Bits/(Pixel*Frame) : 0.058
Stream size : 1.38 GiB (93%)
Source stream size : 1.44 GiB (97%)
Writing library : x264 core 160
Codec configuration box : avc

NWA Powerrr Episode 37

Audio
ID : 2
Format : AAC LC
Format/Info : Advanced Audio
Codec ID : mp4a-40-2
Duration : 55 min 5 s
Bit rate mode : Constant
Bit rate : 96.0 kb/s
Channel(s) : 2 channels
Channel layout : L R
Sampling rate : 48.0 kHz
Frame rate : 46.875 FPS (1024 SPF)
Compression mode : Lossy
Stream size : 38.0 MiB (3%)
Default : Yes
Alternate group : 1

NWA Powerrr Episode 37

Complete name : NWA Powerrr Episode 37.mp4
Format : MPEG-4
Format profile : Base Media
Codec ID : isom
File size : 1.48 GiB
Duration : 55 min 5 s
Overall bit rate : 3 849 kb/s

Video
ID : 1
Format : AVC
Format/Info : Advanced Video
Duration : 55 min 5 s
Source duration : 55 min 5 s
Bit rate : 3 592 kb/s
Nominal bit rate : 4 800 kb/s
Maximum bit rate : 3 744 kb/s
Width : 1 920 pixels
Height : 1 080 pixels
Display aspect ratio : 16:9
Frame rate mode : Constant
Frame rate : 29.970 (30000/1001) FPS
Color space : YUV
Chroma subsampling : 4:2:0
Bit depth : 8 bits
Scan type : Progressive
Bits/(Pixel*Frame) : 0.058
Stream size : 1.38 GiB (93%)
Source stream size : 1.44 GiB (97%)
Writing library : x264 core 160
Codec configuration box : avc

NWA Powerrr Episode 37

Audio
ID : 2
Format : AAC LC
Format/Info : Advanced Audio
Codec ID : mp4a-40-2
Duration : 55 min 5 s
Bit rate mode : Constant
Bit rate : 96.0 kb/s
Channel(s) : 2 channels
Channel layout : L R
Sampling rate : 48.0 kHz
Frame rate : 46.875 FPS (1024 SPF)
Compression mode : Lossy
Stream size : 38.0 MiB (3%)
Default : Yes
Alternate group : 1

NWA Powerrr Episode 37

Complete name : NWA Powerrr Episode 37.mp4
Format : MPEG-4
Format profile : Base Media
Codec ID : isom
File size : 1.48 GiB
Duration : 55 min 5 s
Overall bit rate : 3 849 kb/s

Video
ID : 1
Format : AVC
Format/Info : Advanced Video
Duration : 55 min 5 s
Source duration : 55 min 5 s
Bit rate : 3 592 kb/s
Nominal bit rate : 4 800 kb/s
Maximum bit rate : 3 744 kb/s
Width : 1 920 pixels
Height : 1 080 pixels
Display aspect ratio : 16:9
Frame rate mode : Constant
Frame rate : 29.970 (30000/1001) FPS
Color space : YUV
Chroma subsampling : 4:2:0
Bit depth : 8 bits
Scan type : Progressive
Bits/(Pixel*Frame) : 0.058
Stream size : 1.38 GiB (93%)
Source stream size : 1.44 GiB (97%)
Writing library : x264 core 160
Codec configuration box : avc

NWA Powerrr Episode 37

Audio
ID : 2
Format : AAC LC
Format/Info : Advanced Audio
Codec ID : mp4a-40-2
Duration : 55 min 5 s
Bit rate mode : Constant
Bit rate : 96.0 kb/s
Channel(s) : 2 channels
Channel layout : L R
Sampling rate : 48.0 kHz
Frame rate : 46.875 FPS (1024 SPF)
Compression mode : Lossy
Stream size : 38.0 MiB (3%)
Default : Yes
Alternate group : 1

NWA Powerrr Episode 37

Complete name : NWA Powerrr Episode 37.mp4
Format : MPEG-4
Format profile : Base Media
Codec ID : isom
File size : 1.48 GiB
Duration : 55 min 5 s
Overall bit rate : 3 849 kb/s

Video
ID : 1
Format : AVC
Format/Info : Advanced Video
Duration : 55 min 5 s
Source duration : 55 min 5 s
Bit rate : 3 592 kb/s
Nominal bit rate : 4 800 kb/s
Maximum bit rate : 3 744 kb/s
Width : 1 920 pixels
Height : 1 080 pixels
Display aspect ratio : 16:9
Frame rate mode : Constant
Frame rate : 29.970 (30000/1001) FPS
Color space : YUV
Chroma subsampling : 4:2:0
Bit depth : 8 bits
Scan type : Progressive
Bits/(Pixel*Frame) : 0.058
Stream size : 1.38 GiB (93%)
Source stream size : 1.44 GiB (97%)
Writing library : x264 core 160
Codec configuration box : avc

NWA Powerrr Episode 37

Audio
ID : 2
Format : AAC LC
Format/Info : Advanced Audio
Codec ID : mp4a-40-2
Duration : 55 min 5 s
Bit rate mode : Constant
Bit rate : 96.0 kb/s
Channel(s) : 2 channels
Channel layout : L R
Sampling rate : 48.0 kHz
Frame rate : 46.875 FPS (1024 SPF)
Compression mode : Lossy
Stream size : 38.0 MiB (3%)
Default : Yes
Alternate group : 1

NWA Powerrr Episode 37

Complete name : NWA Powerrr Episode 37.mp4
Format : MPEG-4
Format profile : Base Media
Codec ID : isom
File size : 1.48 GiB
Duration : 55 min 5 s
Overall bit rate : 3 849 kb/s

Video
ID : 1
Format : AVC
Format/Info : Advanced Video
Duration : 55 min 5 s
Source duration : 55 min 5 s
Bit rate : 3 592 kb/s
Nominal bit rate : 4 800 kb/s
Maximum bit rate : 3 744 kb/s
Width : 1 920 pixels
Height : 1 080 pixels
Display aspect ratio : 16:9
Frame rate mode : Constant
Frame rate : 29.970 (30000/1001) FPS
Color space : YUV
Chroma subsampling : 4:2:0
Bit depth : 8 bits
Scan type : Progressive
Bits/(Pixel*Frame) : 0.058
Stream size : 1.38 GiB (93%)
Source stream size : 1.44 GiB (97%)
Writing library : x264 core 160
Codec configuration box : avc

NWA Powerrr Episode 37

Audio
ID : 2
Format : AAC LC
Format/Info : Advanced Audio
Codec ID : mp4a-40-2
Duration : 55 min 5 s
Bit rate mode : Constant
Bit rate : 96.0 kb/s
Channel(s) : 2 channels
Channel layout : L R
Sampling rate : 48.0 kHz
Frame rate : 46.875 FPS (1024 SPF)
Compression mode : Lossy
Stream size : 38.0 MiB (3%)
Default : Yes
Alternate group : 1

NWA Powerrr Episode 37

Complete name : NWA Powerrr Episode 37.mp4
Format : MPEG-4
Format profile : Base Media
Codec ID : isom
File size : 1.48 GiB
Duration : 55 min 5 s
Overall bit rate : 3 849 kb/s

Video
ID : 1
Format : AVC
Format/Info : Advanced Video
Duration : 55 min 5 s
Source duration : 55 min 5 s
Bit rate : 3 592 kb/s
Nominal bit rate : 4 800 kb/s
Maximum bit rate : 3 744 kb/s
Width : 1 920 pixels
Height : 1 080 pixels
Display aspect ratio : 16:9
Frame rate mode : Constant
Frame rate : 29.970 (30000/1001) FPS
Color space : YUV
Chroma subsampling : 4:2:0
Bit depth : 8 bits
Scan type : Progressive
Bits/(Pixel*Frame) : 0.058
Stream size : 1.38 GiB (93%)
Source stream size : 1.44 GiB (97%)
Writing library : x264 core 160
Codec configuration box : avc

NWA Powerrr Episode 37

Audio
ID : 2
Format : AAC LC
Format/Info : Advanced Audio
Codec ID : mp4a-40-2
Duration : 55 min 5 s
Bit rate mode : Constant
Bit rate : 96.0 kb/s
Channel(s) : 2 channels
Channel layout : L R
Sampling rate : 48.0 kHz
Frame rate : 46.875 FPS (1024 SPF)
Compression mode : Lossy
Stream size : 38.0 MiB (3%)
Default : Yes
Alternate group : 1

NWA Powerrr Episode 37

Complete name : NWA Powerrr Episode 37.mp4
Format : MPEG-4
Format profile : Base Media
Codec ID : isom
File size : 1.48 GiB
Duration : 55 min 5 s
Overall bit rate : 3 849 kb/s

Video
ID : 1
Format : AVC
Format/Info : Advanced Video
Duration : 55 min 5 s
Source duration : 55 min 5 s
Bit rate : 3 592 kb/s
Nominal bit rate : 4 800 kb/s
Maximum bit rate : 3 744 kb/s
Width : 1 920 pixels
Height : 1 080 pixels
Display aspect ratio : 16:9
Frame rate mode : Constant
Frame rate : 29.970 (30000/1001) FPS
Color space : YUV
Chroma subsampling : 4:2:0
Bit depth : 8 bits
Scan type : Progressive
Bits/(Pixel*Frame) : 0.058
Stream size : 1.38 GiB (93%)
Source stream size : 1.44 GiB (97%)
Writing library : x264 core 160
Codec configuration box : avc

NWA Powerrr Episode 37

Audio
ID : 2
Format : AAC LC
Format/Info : Advanced Audio
Codec ID : mp4a-40-2
Duration : 55 min 5 s
Bit rate mode : Constant
Bit rate : 96.0 kb/s
Channel(s) : 2 channels
Channel layout : L R
Sampling rate : 48.0 kHz
Frame rate : 46.875 FPS (1024 SPF)
Compression mode : Lossy
Stream size : 38.0 MiB (3%)
Default : Yes
Alternate group : 1

NWA Powerrr Episode 37

Complete name : NWA Powerrr Episode 37.mp4
Format : MPEG-4
Format profile : Base Media
Codec ID : isom
File size : 1.48 GiB
Duration : 55 min 5 s
Overall bit rate : 3 849 kb/s

Video
ID : 1
Format : AVC
Format/Info : Advanced Video
Duration : 55 min 5 s
Source duration : 55 min 5 s
Bit rate : 3 592 kb/s
Nominal bit rate : 4 800 kb/s
Maximum bit rate : 3 744 kb/s
Width : 1 920 pixels
Height : 1 080 pixels
Display aspect ratio : 16:9
Frame rate mode : Constant
Frame rate : 29.970 (30000/1001) FPS
Color space : YUV
Chroma subsampling : 4:2:0
Bit depth : 8 bits
Scan type : Progressive
Bits/(Pixel*Frame) : 0.058
Stream size : 1.38 GiB (93%)
Source stream size : 1.44 GiB (97%)
Writing library : x264 core 160
Codec configuration box : avc

NWA Powerrr Episode 37

Audio
ID : 2
Format : AAC LC
Format/Info : Advanced Audio
Codec ID : mp4a-40-2
Duration : 55 min 5 s
Bit rate mode : Constant
Bit rate : 96.0 kb/s
Channel(s) : 2 channels
Channel layout : L R
Sampling rate : 48.0 kHz
Frame rate : 46.875 FPS (1024 SPF)
Compression mode : Lossy
Stream size : 38.0 MiB (3%)
Default : Yes
Alternate group : 1

NWA Powerrr Episode 37

 

[collapse]

 

 

https://dx-tv.com/

Leave a Reply

Your email address will not be published. Required fields are marked *

This site uses Akismet to reduce spam. Learn how your comment data is processed.