WWE NXT 2021 08 03 720p Online Free Replay

WWE NXT 2021 08 03 720p Online Free Replay DX-TV

WWE NXT 2021

 WWE NXT 2021

 

 

 

Download Links with premium High Speed


 

Dopapk

 

 

Show Links

 

http://shrt10.com/nQgyhGA
http://shrt10.com/KuWhuw

 

[collapse]

 

 

Nitroflare

 

 

Show Links

 

http://shrt10.com/lJCDkEn63
http://shrt10.com/DNMg1C

 

[collapse]

 

 

Rapidgator

 

 

Show Links

 

http://shrt10.com/tPPWco
http://shrt10.com/E3HQiJft7

 

[collapse]

 

 

Uploaded

 

 

Show Links

 

http://shrt10.com/n2btDRbC
http://shrt10.com/5GRfxjnR

 

[collapse]

 

 

Watch online

 

Server 1

 

 

 

 

WWE NXT 2021

 

 

 

 

Server-2

 

 

 

 

watch now

 

 

 

|Server-3

 

 

 

 

watch now

 

 

Uploaded By Site DX-TV.com

 

 

Show Info This Show

 

WWE NXT 2021

Complete name : WWE.NXT.2021.08.03.HDTV.x264-NWCHD.mp4
Format : MPEG-4
Format profile : Base Media
Codec ID : isom
File size : 1.07 GiB
Duration : 1 h 36 min
Overall bit rate : 1 586 kb/s

Video
ID : 1
Format : AVC
Format/Info : Advanced Video
Duration : 1 h 36 min
Bit rate : 1 400 kb/s
Width : 704 pixels
Height : 400 pixels
Display aspect ratio : 16:9
Frame rate mode : Variable
Frame rate : 29.970 (30000/1001) FPS
Minimum frame rate : 29.183 FPS
Maximum frame rate : 29.970 FPS
Color space : YUV
Chroma subsampling : 4:2:0
Bit depth : 8 bits
Scan type : Progressive
Bits/(Pixel*Frame) : 0.166
Stream size : 957 MiB (87%)
Color primaries : BT.709
Transfer characteristics : BT.709
Matrix coefficients : BT.709
Codec configuration box : avc

WWE NXT 2021

Audio
ID : 2
Format : AAC LC
Format/Info : Advanced Audio
Codec ID : mp4a-40-2
Duration : 1 h 36 min
Bit rate mode : Constant
Bit rate : 192 kb/s
Channel(s) : 2 channels
Channel layout : L R
Sampling rate : 48.0 kHz
Frame rate : 46.875 FPS (1024 SPF)
Compression mode : Lossy
Stream size : 133 MiB (12%)
Title : Stereo
Language : English
Default : Yes
Alternate group : 1

Complete name : WWE.NXT.2021.08.03.720p.HDTV.x264-NWCHD.mp4
Format : MPEG-4
Format profile : Base Media
Codec ID : isom
File size : 3.15 GiB
Duration : 1 h 36 min
Overall bit rate : 4 669 kb/s

WWE NXT 2021

Video
ID : 1
Format : AVC
Format/Info : Advanced Video
Duration : 1 h 36 min
Bit rate : 4 500 kb/s
Width : 1 280 pixels
Height : 720 pixels
Display aspect ratio : 16:9
Frame rate mode : Variable
Frame rate : 29.970 (30000/1001) FPS
Minimum frame rate : 29.183 FPS
Maximum frame rate : 29.970 FPS
Color space : YUV
Chroma subsampling : 4:2:0
Bit depth : 8 bits
Scan type : Progressive
Color primaries : BT.709
Transfer characteristics : BT.709
Matrix coefficients : BT.709
Codec configuration box : avc

WWE NXT 2021

Audio
ID : 2
Format : AAC LC
Format/Info : Advanced Audio
Codec ID : mp4a-40-2
Duration : 1 h 36 min
Bit rate mode : Constant
Bit rate : 192 kb/s
Channel(s) : 2 channels
Channel layout : L R
Sampling rate : 48.0 kHz
Frame rate : 46.875 FPS (1024 SPF)
Compression mode : Lossy
Stream size : 133 MiB (4%)
Title : Stereo
Language : English
Default : Yes
Alternate group : 1

WWE NXT 2021

Complete name : WWE.NXT.2021.08.03.HDTV.x264-NWCHD.mp4
Format : MPEG-4
Format profile : Base Media
Codec ID : isom
File size : 1.07 GiB
Duration : 1 h 36 min
Overall bit rate : 1 586 kb/s

Video
ID : 1
Format : AVC
Format/Info : Advanced Video
Duration : 1 h 36 min
Bit rate : 1 400 kb/s
Width : 704 pixels
Height : 400 pixels
Display aspect ratio : 16:9
Frame rate mode : Variable
Frame rate : 29.970 (30000/1001) FPS
Minimum frame rate : 29.183 FPS
Maximum frame rate : 29.970 FPS
Color space : YUV
Chroma subsampling : 4:2:0
Bit depth : 8 bits
Scan type : Progressive
Bits/(Pixel*Frame) : 0.166
Stream size : 957 MiB (87%)
Color primaries : BT.709
Transfer characteristics : BT.709
Matrix coefficients : BT.709
Codec configuration box : avc

WWE NXT 2021

Audio
ID : 2
Format : AAC LC
Format/Info : Advanced Audio
Codec ID : mp4a-40-2
Duration : 1 h 36 min
Bit rate mode : Constant
Bit rate : 192 kb/s
Channel(s) : 2 channels
Channel layout : L R
Sampling rate : 48.0 kHz
Frame rate : 46.875 FPS (1024 SPF)
Compression mode : Lossy
Stream size : 133 MiB (12%)
Title : Stereo
Language : English
Default : Yes
Alternate group : 1

Complete name : WWE.NXT.2021.08.03.720p.HDTV.x264-NWCHD.mp4
Format : MPEG-4
Format profile : Base Media
Codec ID : isom
File size : 3.15 GiB
Duration : 1 h 36 min
Overall bit rate : 4 669 kb/s

WWE NXT 2021

Video
ID : 1
Format : AVC
Format/Info : Advanced Video
Duration : 1 h 36 min
Bit rate : 4 500 kb/s
Width : 1 280 pixels
Height : 720 pixels
Display aspect ratio : 16:9
Frame rate mode : Variable
Frame rate : 29.970 (30000/1001) FPS
Minimum frame rate : 29.183 FPS
Maximum frame rate : 29.970 FPS
Color space : YUV
Chroma subsampling : 4:2:0
Bit depth : 8 bits
Scan type : Progressive
Color primaries : BT.709
Transfer characteristics : BT.709
Matrix coefficients : BT.709
Codec configuration box : avc

WWE NXT 2021

Audio
ID : 2
Format : AAC LC
Format/Info : Advanced Audio
Codec ID : mp4a-40-2
Duration : 1 h 36 min
Bit rate mode : Constant
Bit rate : 192 kb/s
Channel(s) : 2 channels
Channel layout : L R
Sampling rate : 48.0 kHz
Frame rate : 46.875 FPS (1024 SPF)
Compression mode : Lossy
Stream size : 133 MiB (4%)
Title : Stereo
Language : English
Default : Yes
Alternate group : 1

WWE NXT 2021

Complete name : WWE.NXT.2021.08.03.HDTV.x264-NWCHD.mp4
Format : MPEG-4
Format profile : Base Media
Codec ID : isom
File size : 1.07 GiB
Duration : 1 h 36 min
Overall bit rate : 1 586 kb/s

Video
ID : 1
Format : AVC
Format/Info : Advanced Video
Duration : 1 h 36 min
Bit rate : 1 400 kb/s
Width : 704 pixels
Height : 400 pixels
Display aspect ratio : 16:9
Frame rate mode : Variable
Frame rate : 29.970 (30000/1001) FPS
Minimum frame rate : 29.183 FPS
Maximum frame rate : 29.970 FPS
Color space : YUV
Chroma subsampling : 4:2:0
Bit depth : 8 bits
Scan type : Progressive
Bits/(Pixel*Frame) : 0.166
Stream size : 957 MiB (87%)
Color primaries : BT.709
Transfer characteristics : BT.709
Matrix coefficients : BT.709
Codec configuration box : avc

WWE NXT 2021

Audio
ID : 2
Format : AAC LC
Format/Info : Advanced Audio
Codec ID : mp4a-40-2
Duration : 1 h 36 min
Bit rate mode : Constant
Bit rate : 192 kb/s
Channel(s) : 2 channels
Channel layout : L R
Sampling rate : 48.0 kHz
Frame rate : 46.875 FPS (1024 SPF)
Compression mode : Lossy
Stream size : 133 MiB (12%)
Title : Stereo
Language : English
Default : Yes
Alternate group : 1

Complete name : WWE.NXT.2021.08.03.720p.HDTV.x264-NWCHD.mp4
Format : MPEG-4
Format profile : Base Media
Codec ID : isom
File size : 3.15 GiB
Duration : 1 h 36 min
Overall bit rate : 4 669 kb/s

WWE NXT 2021

Video
ID : 1
Format : AVC
Format/Info : Advanced Video
Duration : 1 h 36 min
Bit rate : 4 500 kb/s
Width : 1 280 pixels
Height : 720 pixels
Display aspect ratio : 16:9
Frame rate mode : Variable
Frame rate : 29.970 (30000/1001) FPS
Minimum frame rate : 29.183 FPS
Maximum frame rate : 29.970 FPS
Color space : YUV
Chroma subsampling : 4:2:0
Bit depth : 8 bits
Scan type : Progressive
Color primaries : BT.709
Transfer characteristics : BT.709
Matrix coefficients : BT.709
Codec configuration box : avc

WWE NXT 2021

Audio
ID : 2
Format : AAC LC
Format/Info : Advanced Audio
Codec ID : mp4a-40-2
Duration : 1 h 36 min
Bit rate mode : Constant
Bit rate : 192 kb/s
Channel(s) : 2 channels
Channel layout : L R
Sampling rate : 48.0 kHz
Frame rate : 46.875 FPS (1024 SPF)
Compression mode : Lossy
Stream size : 133 MiB (4%)
Title : Stereo
Language : English
Default : Yes
Alternate group : 1

WWE NXT 2021

Complete name : WWE.NXT.2021.08.03.HDTV.x264-NWCHD.mp4
Format : MPEG-4
Format profile : Base Media
Codec ID : isom
File size : 1.07 GiB
Duration : 1 h 36 min
Overall bit rate : 1 586 kb/s

Video
ID : 1
Format : AVC
Format/Info : Advanced Video
Duration : 1 h 36 min
Bit rate : 1 400 kb/s
Width : 704 pixels
Height : 400 pixels
Display aspect ratio : 16:9
Frame rate mode : Variable
Frame rate : 29.970 (30000/1001) FPS
Minimum frame rate : 29.183 FPS
Maximum frame rate : 29.970 FPS
Color space : YUV
Chroma subsampling : 4:2:0
Bit depth : 8 bits
Scan type : Progressive
Bits/(Pixel*Frame) : 0.166
Stream size : 957 MiB (87%)
Color primaries : BT.709
Transfer characteristics : BT.709
Matrix coefficients : BT.709
Codec configuration box : avc

WWE NXT 2021

Audio
ID : 2
Format : AAC LC
Format/Info : Advanced Audio
Codec ID : mp4a-40-2
Duration : 1 h 36 min
Bit rate mode : Constant
Bit rate : 192 kb/s
Channel(s) : 2 channels
Channel layout : L R
Sampling rate : 48.0 kHz
Frame rate : 46.875 FPS (1024 SPF)
Compression mode : Lossy
Stream size : 133 MiB (12%)
Title : Stereo
Language : English
Default : Yes
Alternate group : 1

Complete name : WWE.NXT.2021.08.03.720p.HDTV.x264-NWCHD.mp4
Format : MPEG-4
Format profile : Base Media
Codec ID : isom
File size : 3.15 GiB
Duration : 1 h 36 min
Overall bit rate : 4 669 kb/s

WWE NXT 2021

Video
ID : 1
Format : AVC
Format/Info : Advanced Video
Duration : 1 h 36 min
Bit rate : 4 500 kb/s
Width : 1 280 pixels
Height : 720 pixels
Display aspect ratio : 16:9
Frame rate mode : Variable
Frame rate : 29.970 (30000/1001) FPS
Minimum frame rate : 29.183 FPS
Maximum frame rate : 29.970 FPS
Color space : YUV
Chroma subsampling : 4:2:0
Bit depth : 8 bits
Scan type : Progressive
Color primaries : BT.709
Transfer characteristics : BT.709
Matrix coefficients : BT.709
Codec configuration box : avc

WWE NXT 2021

Audio
ID : 2
Format : AAC LC
Format/Info : Advanced Audio
Codec ID : mp4a-40-2
Duration : 1 h 36 min
Bit rate mode : Constant
Bit rate : 192 kb/s
Channel(s) : 2 channels
Channel layout : L R
Sampling rate : 48.0 kHz
Frame rate : 46.875 FPS (1024 SPF)
Compression mode : Lossy
Stream size : 133 MiB (4%)
Title : Stereo
Language : English
Default : Yes
Alternate group : 1

WWE NXT 2021

Complete name : WWE.NXT.2021.08.03.HDTV.x264-NWCHD.mp4
Format : MPEG-4
Format profile : Base Media
Codec ID : isom
File size : 1.07 GiB
Duration : 1 h 36 min
Overall bit rate : 1 586 kb/s

Video
ID : 1
Format : AVC
Format/Info : Advanced Video
Duration : 1 h 36 min
Bit rate : 1 400 kb/s
Width : 704 pixels
Height : 400 pixels
Display aspect ratio : 16:9
Frame rate mode : Variable
Frame rate : 29.970 (30000/1001) FPS
Minimum frame rate : 29.183 FPS
Maximum frame rate : 29.970 FPS
Color space : YUV
Chroma subsampling : 4:2:0
Bit depth : 8 bits
Scan type : Progressive
Bits/(Pixel*Frame) : 0.166
Stream size : 957 MiB (87%)
Color primaries : BT.709
Transfer characteristics : BT.709
Matrix coefficients : BT.709
Codec configuration box : avc

WWE NXT 2021

Audio
ID : 2
Format : AAC LC
Format/Info : Advanced Audio
Codec ID : mp4a-40-2
Duration : 1 h 36 min
Bit rate mode : Constant
Bit rate : 192 kb/s
Channel(s) : 2 channels
Channel layout : L R
Sampling rate : 48.0 kHz
Frame rate : 46.875 FPS (1024 SPF)
Compression mode : Lossy
Stream size : 133 MiB (12%)
Title : Stereo
Language : English
Default : Yes
Alternate group : 1

Complete name : WWE.NXT.2021.08.03.720p.HDTV.x264-NWCHD.mp4
Format : MPEG-4
Format profile : Base Media
Codec ID : isom
File size : 3.15 GiB
Duration : 1 h 36 min
Overall bit rate : 4 669 kb/s

WWE NXT 2021

Video
ID : 1
Format : AVC
Format/Info : Advanced Video
Duration : 1 h 36 min
Bit rate : 4 500 kb/s
Width : 1 280 pixels
Height : 720 pixels
Display aspect ratio : 16:9
Frame rate mode : Variable
Frame rate : 29.970 (30000/1001) FPS
Minimum frame rate : 29.183 FPS
Maximum frame rate : 29.970 FPS
Color space : YUV
Chroma subsampling : 4:2:0
Bit depth : 8 bits
Scan type : Progressive
Color primaries : BT.709
Transfer characteristics : BT.709
Matrix coefficients : BT.709
Codec configuration box : avc

WWE NXT 2021

Audio
ID : 2
Format : AAC LC
Format/Info : Advanced Audio
Codec ID : mp4a-40-2
Duration : 1 h 36 min
Bit rate mode : Constant
Bit rate : 192 kb/s
Channel(s) : 2 channels
Channel layout : L R
Sampling rate : 48.0 kHz
Frame rate : 46.875 FPS (1024 SPF)
Compression mode : Lossy
Stream size : 133 MiB (4%)
Title : Stereo
Language : English
Default : Yes
Alternate group : 1

WWE NXT 2021

Complete name : WWE.NXT.2021.08.03.HDTV.x264-NWCHD.mp4
Format : MPEG-4
Format profile : Base Media
Codec ID : isom
File size : 1.07 GiB
Duration : 1 h 36 min
Overall bit rate : 1 586 kb/s

Video
ID : 1
Format : AVC
Format/Info : Advanced Video
Duration : 1 h 36 min
Bit rate : 1 400 kb/s
Width : 704 pixels
Height : 400 pixels
Display aspect ratio : 16:9
Frame rate mode : Variable
Frame rate : 29.970 (30000/1001) FPS
Minimum frame rate : 29.183 FPS
Maximum frame rate : 29.970 FPS
Color space : YUV
Chroma subsampling : 4:2:0
Bit depth : 8 bits
Scan type : Progressive
Bits/(Pixel*Frame) : 0.166
Stream size : 957 MiB (87%)
Color primaries : BT.709
Transfer characteristics : BT.709
Matrix coefficients : BT.709
Codec configuration box : avc

WWE NXT 2021

Audio
ID : 2
Format : AAC LC
Format/Info : Advanced Audio
Codec ID : mp4a-40-2
Duration : 1 h 36 min
Bit rate mode : Constant
Bit rate : 192 kb/s
Channel(s) : 2 channels
Channel layout : L R
Sampling rate : 48.0 kHz
Frame rate : 46.875 FPS (1024 SPF)
Compression mode : Lossy
Stream size : 133 MiB (12%)
Title : Stereo
Language : English
Default : Yes
Alternate group : 1

Complete name : WWE.NXT.2021.08.03.720p.HDTV.x264-NWCHD.mp4
Format : MPEG-4
Format profile : Base Media
Codec ID : isom
File size : 3.15 GiB
Duration : 1 h 36 min
Overall bit rate : 4 669 kb/s

WWE NXT 2021

Video
ID : 1
Format : AVC
Format/Info : Advanced Video
Duration : 1 h 36 min
Bit rate : 4 500 kb/s
Width : 1 280 pixels
Height : 720 pixels
Display aspect ratio : 16:9
Frame rate mode : Variable
Frame rate : 29.970 (30000/1001) FPS
Minimum frame rate : 29.183 FPS
Maximum frame rate : 29.970 FPS
Color space : YUV
Chroma subsampling : 4:2:0
Bit depth : 8 bits
Scan type : Progressive
Color primaries : BT.709
Transfer characteristics : BT.709
Matrix coefficients : BT.709
Codec configuration box : avc

WWE NXT 2021

Audio
ID : 2
Format : AAC LC
Format/Info : Advanced Audio
Codec ID : mp4a-40-2
Duration : 1 h 36 min
Bit rate mode : Constant
Bit rate : 192 kb/s
Channel(s) : 2 channels
Channel layout : L R
Sampling rate : 48.0 kHz
Frame rate : 46.875 FPS (1024 SPF)
Compression mode : Lossy
Stream size : 133 MiB (4%)
Title : Stereo
Language : English
Default : Yes
Alternate group : 1

WWE NXT 2021

Complete name : WWE.NXT.2021.08.03.HDTV.x264-NWCHD.mp4
Format : MPEG-4
Format profile : Base Media
Codec ID : isom
File size : 1.07 GiB
Duration : 1 h 36 min
Overall bit rate : 1 586 kb/s

Video
ID : 1
Format : AVC
Format/Info : Advanced Video
Duration : 1 h 36 min
Bit rate : 1 400 kb/s
Width : 704 pixels
Height : 400 pixels
Display aspect ratio : 16:9
Frame rate mode : Variable
Frame rate : 29.970 (30000/1001) FPS
Minimum frame rate : 29.183 FPS
Maximum frame rate : 29.970 FPS
Color space : YUV
Chroma subsampling : 4:2:0
Bit depth : 8 bits
Scan type : Progressive
Bits/(Pixel*Frame) : 0.166
Stream size : 957 MiB (87%)
Color primaries : BT.709
Transfer characteristics : BT.709
Matrix coefficients : BT.709
Codec configuration box : avc

WWE NXT 2021

Audio
ID : 2
Format : AAC LC
Format/Info : Advanced Audio
Codec ID : mp4a-40-2
Duration : 1 h 36 min
Bit rate mode : Constant
Bit rate : 192 kb/s
Channel(s) : 2 channels
Channel layout : L R
Sampling rate : 48.0 kHz
Frame rate : 46.875 FPS (1024 SPF)
Compression mode : Lossy
Stream size : 133 MiB (12%)
Title : Stereo
Language : English
Default : Yes
Alternate group : 1

Complete name : WWE.NXT.2021.08.03.720p.HDTV.x264-NWCHD.mp4
Format : MPEG-4
Format profile : Base Media
Codec ID : isom
File size : 3.15 GiB
Duration : 1 h 36 min
Overall bit rate : 4 669 kb/s

WWE NXT 2021

Video
ID : 1
Format : AVC
Format/Info : Advanced Video
Duration : 1 h 36 min
Bit rate : 4 500 kb/s
Width : 1 280 pixels
Height : 720 pixels
Display aspect ratio : 16:9
Frame rate mode : Variable
Frame rate : 29.970 (30000/1001) FPS
Minimum frame rate : 29.183 FPS
Maximum frame rate : 29.970 FPS
Color space : YUV
Chroma subsampling : 4:2:0
Bit depth : 8 bits
Scan type : Progressive
Color primaries : BT.709
Transfer characteristics : BT.709
Matrix coefficients : BT.709
Codec configuration box : avc

WWE NXT 2021

Audio
ID : 2
Format : AAC LC
Format/Info : Advanced Audio
Codec ID : mp4a-40-2
Duration : 1 h 36 min
Bit rate mode : Constant
Bit rate : 192 kb/s
Channel(s) : 2 channels
Channel layout : L R
Sampling rate : 48.0 kHz
Frame rate : 46.875 FPS (1024 SPF)
Compression mode : Lossy
Stream size : 133 MiB (4%)
Title : Stereo
Language : English
Default : Yes
Alternate group : 1

WWE NXT 2021

Complete name : WWE.NXT.2021.08.03.HDTV.x264-NWCHD.mp4
Format : MPEG-4
Format profile : Base Media
Codec ID : isom
File size : 1.07 GiB
Duration : 1 h 36 min
Overall bit rate : 1 586 kb/s

Video
ID : 1
Format : AVC
Format/Info : Advanced Video
Duration : 1 h 36 min
Bit rate : 1 400 kb/s
Width : 704 pixels
Height : 400 pixels
Display aspect ratio : 16:9
Frame rate mode : Variable
Frame rate : 29.970 (30000/1001) FPS
Minimum frame rate : 29.183 FPS
Maximum frame rate : 29.970 FPS
Color space : YUV
Chroma subsampling : 4:2:0
Bit depth : 8 bits
Scan type : Progressive
Bits/(Pixel*Frame) : 0.166
Stream size : 957 MiB (87%)
Color primaries : BT.709
Transfer characteristics : BT.709
Matrix coefficients : BT.709
Codec configuration box : avc

WWE NXT 2021

Audio
ID : 2
Format : AAC LC
Format/Info : Advanced Audio
Codec ID : mp4a-40-2
Duration : 1 h 36 min
Bit rate mode : Constant
Bit rate : 192 kb/s
Channel(s) : 2 channels
Channel layout : L R
Sampling rate : 48.0 kHz
Frame rate : 46.875 FPS (1024 SPF)
Compression mode : Lossy
Stream size : 133 MiB (12%)
Title : Stereo
Language : English
Default : Yes
Alternate group : 1

Complete name : WWE.NXT.2021.08.03.720p.HDTV.x264-NWCHD.mp4
Format : MPEG-4
Format profile : Base Media
Codec ID : isom
File size : 3.15 GiB
Duration : 1 h 36 min
Overall bit rate : 4 669 kb/s

WWE NXT 2021

Video
ID : 1
Format : AVC
Format/Info : Advanced Video
Duration : 1 h 36 min
Bit rate : 4 500 kb/s
Width : 1 280 pixels
Height : 720 pixels
Display aspect ratio : 16:9
Frame rate mode : Variable
Frame rate : 29.970 (30000/1001) FPS
Minimum frame rate : 29.183 FPS
Maximum frame rate : 29.970 FPS
Color space : YUV
Chroma subsampling : 4:2:0
Bit depth : 8 bits
Scan type : Progressive
Color primaries : BT.709
Transfer characteristics : BT.709
Matrix coefficients : BT.709
Codec configuration box : avc

WWE NXT 2021

Audio
ID : 2
Format : AAC LC
Format/Info : Advanced Audio
Codec ID : mp4a-40-2
Duration : 1 h 36 min
Bit rate mode : Constant
Bit rate : 192 kb/s
Channel(s) : 2 channels
Channel layout : L R
Sampling rate : 48.0 kHz
Frame rate : 46.875 FPS (1024 SPF)
Compression mode : Lossy
Stream size : 133 MiB (4%)
Title : Stereo
Language : English
Default : Yes
Alternate group : 1

WWE NXT 2021

Complete name : WWE.NXT.2021.08.03.HDTV.x264-NWCHD.mp4
Format : MPEG-4
Format profile : Base Media
Codec ID : isom
File size : 1.07 GiB
Duration : 1 h 36 min
Overall bit rate : 1 586 kb/s

Video
ID : 1
Format : AVC
Format/Info : Advanced Video
Duration : 1 h 36 min
Bit rate : 1 400 kb/s
Width : 704 pixels
Height : 400 pixels
Display aspect ratio : 16:9
Frame rate mode : Variable
Frame rate : 29.970 (30000/1001) FPS
Minimum frame rate : 29.183 FPS
Maximum frame rate : 29.970 FPS
Color space : YUV
Chroma subsampling : 4:2:0
Bit depth : 8 bits
Scan type : Progressive
Bits/(Pixel*Frame) : 0.166
Stream size : 957 MiB (87%)
Color primaries : BT.709
Transfer characteristics : BT.709
Matrix coefficients : BT.709
Codec configuration box : avc

WWE NXT 2021

Audio
ID : 2
Format : AAC LC
Format/Info : Advanced Audio
Codec ID : mp4a-40-2
Duration : 1 h 36 min
Bit rate mode : Constant
Bit rate : 192 kb/s
Channel(s) : 2 channels
Channel layout : L R
Sampling rate : 48.0 kHz
Frame rate : 46.875 FPS (1024 SPF)
Compression mode : Lossy
Stream size : 133 MiB (12%)
Title : Stereo
Language : English
Default : Yes
Alternate group : 1

Complete name : WWE.NXT.2021.08.03.720p.HDTV.x264-NWCHD.mp4
Format : MPEG-4
Format profile : Base Media
Codec ID : isom
File size : 3.15 GiB
Duration : 1 h 36 min
Overall bit rate : 4 669 kb/s

WWE NXT 2021

Video
ID : 1
Format : AVC
Format/Info : Advanced Video
Duration : 1 h 36 min
Bit rate : 4 500 kb/s
Width : 1 280 pixels
Height : 720 pixels
Display aspect ratio : 16:9
Frame rate mode : Variable
Frame rate : 29.970 (30000/1001) FPS
Minimum frame rate : 29.183 FPS
Maximum frame rate : 29.970 FPS
Color space : YUV
Chroma subsampling : 4:2:0
Bit depth : 8 bits
Scan type : Progressive
Color primaries : BT.709
Transfer characteristics : BT.709
Matrix coefficients : BT.709
Codec configuration box : avc

WWE NXT 2021

Audio
ID : 2
Format : AAC LC
Format/Info : Advanced Audio
Codec ID : mp4a-40-2
Duration : 1 h 36 min
Bit rate mode : Constant
Bit rate : 192 kb/s
Channel(s) : 2 channels
Channel layout : L R
Sampling rate : 48.0 kHz
Frame rate : 46.875 FPS (1024 SPF)
Compression mode : Lossy
Stream size : 133 MiB (4%)
Title : Stereo
Language : English
Default : Yes
Alternate group : 1

WWE NXT 2021

Complete name : WWE.NXT.2021.08.03.HDTV.x264-NWCHD.mp4
Format : MPEG-4
Format profile : Base Media
Codec ID : isom
File size : 1.07 GiB
Duration : 1 h 36 min
Overall bit rate : 1 586 kb/s

Video
ID : 1
Format : AVC
Format/Info : Advanced Video
Duration : 1 h 36 min
Bit rate : 1 400 kb/s
Width : 704 pixels
Height : 400 pixels
Display aspect ratio : 16:9
Frame rate mode : Variable
Frame rate : 29.970 (30000/1001) FPS
Minimum frame rate : 29.183 FPS
Maximum frame rate : 29.970 FPS
Color space : YUV
Chroma subsampling : 4:2:0
Bit depth : 8 bits
Scan type : Progressive
Bits/(Pixel*Frame) : 0.166
Stream size : 957 MiB (87%)
Color primaries : BT.709
Transfer characteristics : BT.709
Matrix coefficients : BT.709
Codec configuration box : avc

WWE NXT 2021

Audio
ID : 2
Format : AAC LC
Format/Info : Advanced Audio
Codec ID : mp4a-40-2
Duration : 1 h 36 min
Bit rate mode : Constant
Bit rate : 192 kb/s
Channel(s) : 2 channels
Channel layout : L R
Sampling rate : 48.0 kHz
Frame rate : 46.875 FPS (1024 SPF)
Compression mode : Lossy
Stream size : 133 MiB (12%)
Title : Stereo
Language : English
Default : Yes
Alternate group : 1

Complete name : WWE.NXT.2021.08.03.720p.HDTV.x264-NWCHD.mp4
Format : MPEG-4
Format profile : Base Media
Codec ID : isom
File size : 3.15 GiB
Duration : 1 h 36 min
Overall bit rate : 4 669 kb/s

WWE NXT 2021

Video
ID : 1
Format : AVC
Format/Info : Advanced Video
Duration : 1 h 36 min
Bit rate : 4 500 kb/s
Width : 1 280 pixels
Height : 720 pixels
Display aspect ratio : 16:9
Frame rate mode : Variable
Frame rate : 29.970 (30000/1001) FPS
Minimum frame rate : 29.183 FPS
Maximum frame rate : 29.970 FPS
Color space : YUV
Chroma subsampling : 4:2:0
Bit depth : 8 bits
Scan type : Progressive
Color primaries : BT.709
Transfer characteristics : BT.709
Matrix coefficients : BT.709
Codec configuration box : avc

WWE NXT 2021

Audio
ID : 2
Format : AAC LC
Format/Info : Advanced Audio
Codec ID : mp4a-40-2
Duration : 1 h 36 min
Bit rate mode : Constant
Bit rate : 192 kb/s
Channel(s) : 2 channels
Channel layout : L R
Sampling rate : 48.0 kHz
Frame rate : 46.875 FPS (1024 SPF)
Compression mode : Lossy
Stream size : 133 MiB (4%)
Title : Stereo
Language : English
Default : Yes
Alternate group : 1

WWE NXT 2021

 

[collapse]

 

 

https://dx-tv.com/

Leave a Reply

Your email address will not be published. Required fields are marked *

This site uses Akismet to reduce spam. Learn how your comment data is processed.