NOAH N 1 Victory 2021 09 26 Full Show Online

NOAH N 1 Victory 2021 09 26 Full Show Online Free Replay DX-TV

NOAH N 1 Victory 2021

 NOAH N 1 Victory 2021

 

 

 

Download Links with premium High Speed
 

 


 

Dopapk

 

 

Show Links

 

 

 

 

Nitroflare

 

 

Show Links

 

 

Rapidgator

 

 

Show Links

 

 

 

Uploaded
 

 

 

Show Links

 

 

 

 

 

Watch online

 

Server 1

 

 

 

 

watch now

 

 

 

 

Server-2

 

 

 

 

NOAH N 1 Victory

 

 

 

|Server-3

 

 

 

 

watch now

 

 

Uploaded By Site DX-TV.com

 

 

Open Info Show

 

 

Complete name : 2021.09.26.NOAH. 1.Victory.2021.Tokyo.Korakuen.Hall.(Abema.TV).mp4
Format : MPEG-4
Format profile : Base Media
Codec ID : isom
File size : 2.48 GiB
Duration : 2 h 56 min
Overall bit rate : 2 006 kb/s

NOAH N 1 Victory

Video
ID : 1
Format : AVC
Duration : 2 h 56 min
Bit rate : 1 801 kb/s
Width : 1 280 pixels
Height : 720 pixels
Display aspect ratio : 16:9
Frame rate mode : Constant
Frame rate : 60.000 FPS
Color space : YUV
Chroma subsampling : 4:2:0
Bit depth : 8 bits
Scan type : Progressive
Bits/(Pixel*Frame) : 0.033
Stream size : 2.22 GiB (90%)
Color primaries : BT.709
Transfer characteristics : BT.709
Matrix coefficients : BT.709
Codec configuration box : avcC

NOAH N 1 Victory

Audio
ID : 2
Format : AAC LC
Format/Info : Advanced Audio
Codec ID : mp4a-40-2
Duration : 2 h 56 min
Bit rate mode : Constant
Bit rate : 192 kb/s
Channel(s) : 2 channels
Channel layout : L R
Sampling rate : 48.0 kHz
Frame rate : 46.875 FPS (1024 SPF)
Compression mode : Lossy
Stream size : 243 MiB (10%)
Title : simple_aac_recording
Default : Yes
Alternate group : 1

 

Format : MPEG-4
Format profile : Base Media
Codec ID : isom
File size : 2.48 GiB
Duration : 2 h 56 min
Overall bit rate : 2 006 kb/s

NOAH N 1 Victory

Video
ID : 1
Format : AVC
Duration : 2 h 56 min
Bit rate : 1 801 kb/s
Width : 1 280 pixels
Height : 720 pixels
Display aspect ratio : 16:9
Frame rate mode : Constant
Frame rate : 60.000 FPS
Color space : YUV
Chroma subsampling : 4:2:0
Bit depth : 8 bits
Scan type : Progressive
Bits/(Pixel*Frame) : 0.033
Stream size : 2.22 GiB (90%)
Color primaries : BT.709
Transfer characteristics : BT.709
Matrix coefficients : BT.709
Codec configuration box : avcC

NOAH N 1  

Audio
ID : 2
Format : AAC LC
Format/Info : Advanced Audio
Codec ID : mp4a-40-2
Duration : 2 h 56 min
Bit rate mode : Constant
Bit rate : 192 kb/s
Channel(s) : 2 channels
Channel layout : L R
Sampling rate : 48.0 kHz
Frame rate : 46.875 FPS (1024 SPF)
Compression mode : Lossy
Stream size : 243 MiB (10%)
Title : simple_aac_recording
Default : Yes
Alternate group : 1

 

https://dx-tv.com/

 

 

 

 

 

You May Also Like

Leave a Reply

Your email address will not be published. Required fields are marked *

This site uses Akismet to reduce spam. Learn how your comment data is processed.