AEW Rampage 2021 09 24 Grand Slam Full Show Replay

AEW Rampage 2021 09 24 Grand Slam Full Show Online Free Replay DX-TV

AEW Rampage 2021

 AEW Rampage 2021

 

 

 

Download Links with premium High Speed

Dopapk

 

 

Show Links

 

 

http://shrt10.com/y5DlDk
http://shrt10.com/Fu25CK0R
http://shrt10.com/nlxL5H26w

 

 

 

 

 

Nitroflare

 

 

Show Links

 

 

http://shrt10.com/V4SJ8
http://shrt10.com/WJZ7M
http://shrt10.com/KXRGzkAMt

 

 

 

 

Rapidgator

 

 

Show Links

 

 

http://shrt10.com/A13oD
http://shrt10.com/HXUfUv2
http://shrt10.com/ZtL13i

 

 

 

 

 

Uploaded
 

Show Links

 

 

http://shrt10.com/dlO5ErJS
http://shrt10.com/L1ojZSGS

 

 

 

 

 

 

 

Watch online

 

Server 1

 

 

 

 

AEW Rampage 2021

 

 

 

 

Server-2

 

 

 

 

watch now

 

 

 

|Server-3

 

 

 

 

watch now

 

 

Uploaded By Site DX-TV.com

 

 

Open Info Show

 

 

Complete name : AEW.Rampage.2021.09.24.Grand.Slam.REPACK.720p.HDTV.x264-NWCHD.mp4
Format : MPEG-4
Format profile : Base Media
Codec ID : mp42
File size : 3.01 GiB
Duration : 1 h 31 min
Overall bit rate mode : Variable
Overall bit rate : 4 705 kb/s

AEW Rampage 2021

Video
ID : 1
Format : AVC
Duration : 1 h 31 min
Bit rate : 4 500 kb/s
Width : 1 280 pixels
Height : 720 pixels
Display aspect ratio : 16:9
Frame rate mode : Constant
Frame rate : 29.970 (30000/1001) FPS
Color space : YUV
Chroma subsampling : 4:2:0
Bit depth : 8 bits
Scan type : Progressive
Bits/(Pixel*Frame) : 0.163
Stream size : 2.89 GiB (96%)
Color range : Limited
Color primaries : BT.709
Transfer characteristics : BT.709
Matrix coefficients : BT.709
Codec configuration box : avcC

AEW Rampage  

Audio
ID : 2
Format : AAC LC
Format/Info : Advanced Audio
Codec ID : mp4a-40-2
Duration : 1 h 31 min
Bit rate mode : Variable
Bit rate : 192 kb/s
Channel(s) : 2 channels
Channel layout : L R
Sampling rate : 48.0 kHz
Frame rate : 46.875 FPS (1024 SPF)
Compression mode : Lossy
Stream size : 126 MiB (4%)
Title : Stereo / Stereo
Language : English
Default : Yes
Alternate group : 1

Complete name : AEW.Rampage.2021.09.24.Grand.Slam.REPACK.1080p.HDTV.x264-NWCHD.mp4
Format : MPEG-4
Format profile : Base Media / Version 2
Codec ID : mp/mp41)
File size : 5.26 GiB
Duration : 1 h 31 min
Overall bit rate mode : Variable
Overall bit rate : 8 210 kb/s

Video
ID : 1
Format : AVC
Duration : 1 h 31 min
Bit rate : 8 000 kb/s
Width : 1 920 pixels
Height : 1 080 pixels
Display aspect ratio : 16:9
Frame rate mode : Constant
Frame rate : 29.970 (30000/1001) FPS
Color space : YUV
Chroma subsampling : 4:2:0
Bit depth : 8 bits
Scan type : Progressive
Bits/(Pixel*Frame) : 0.129
Stream size : 5.13 GiB (98%)
Color range : Limited
Color primaries : BT.709
Transfer characteristics : BT.709
Matrix coefficients : BT.709
Codec configuration box : avcC

AEW Rampage 2021

Audio
ID : 2
Format : AAC LC
Format/Info : Advanced
Codec ID : mp4a-40-2
Duration : 1 h 31 min
Bit rate mode : Variable
Bit rate : 192 kb/s
Channel(s) : 2 channels
Channel layout : L R
Sampling rate : 48.0 kHz
Frame rate : 46.875 FPS (1024 SPF)
Compression mode : Lossy
Stream size : 126 MiB (2%)
Title : Stereo / Stereo
Language : English
Default : Yes

Complete name : AEW.Rampage.2021.09.24.Grand.Slam.REPACK.HDTV.x264-NWCHD.mp4
Format : MPEG-4
Format profile : Base Media / Version 2
Codec ID : mpc1/mp41)
File size : 1.03 GiB
Duration : 1 h 31 min
Overall bit rate mode : Variable
Overall bit rate : 1 601 kb/s

Video
ID : 1
Format : AVC
Duration : 1 h 31 min
Bit rate : 1 400 kb/s
Width : 704 pixels
Height : 400 pixels
Display aspect ratio : 16:9
Frame rate mode : Constant
Frame rate : 29.970 (30000/1001) FPS
Color space : YUV
Chroma subsampling : 4:2:0
Bit depth : 8 bits
Scan type : Progressive
Bits/(Pixel*Frame) : 0.166
Stream size : 920 MiB (88%)
Color range : Limited
Color primaries : BT.709
Transfer characteristics : BT.709
Matrix coefficients : BT.709
Codec configuration box : avcC

AEW Rampage 2021

Audio
ID : 2
Format : AAC LC
Format/Info : Advanced
Codec ID : mp4a-40-2
Duration : 1 h 31 min
Bit rate mode : Variable
Bit rate : 192 kb/s
Channel(s) : 2 channels
Channel layout : L R
Sampling rate : 48.0 kHz
Frame rate : 46.875 FPS (1024 SPF)
Compression mode : Lossy
Stream size : 126 MiB (12%)
Title : Stereo / Stereo
Language : English
Default : Yes
Alternate group : 1

 

 

https://dx-tv.com/

 

 

 

 

 

You May Also Like

Leave a Reply

Your email address will not be published. Required fields are marked *

This site uses Akismet to reduce spam. Learn how your comment data is processed.