NOAH Mitsuharu Misawa Memorial 2021 Online Free 2021 06 13 I Will Never Forget This Day English DX-TV

Contents show

NOAH Mitsuharu Misawa Memorial

 NOAH Mitsuharu Misawa Memorial

 

 

 

Download Links with premium High Speed


 

Dopapk

 

 

Show Links

 

http://shrt10.com/jW53pL09
http://shrt10.com/wGUoG

 

[collapse]

 

 

Nitroflare

 

 

Show Links

 

http://shrt10.com/b0PXpDe3
http://shrt10.com/61zhe

 

[collapse]

 

 

Rapidgator

 

 

Show Links

 

http://shrt10.com/O6j7FFZO
http://shrt10.com/cXNDPY

 

[collapse]

 

 

Uploaded

 

 

Show Links

 

http://shrt10.com/AT6PznJcn
http://shrt10.com/T4wDH7ZZa

 

[collapse]

 

 

Watch online

 

Server 1

 

[WhatsApp-Share]

 

 

NOAH Mitsuharu Misawa Memorial

 

 

 

 

Server-2

 

 

 

 

watch now

 

 

 

|Server-4

 

 

 

 

watch now

 

 

Uploaded By Site DX-TV.com

 

 

Show Info This Show

 

NOAH Mitsuharu Misawa Memorial

Complete name : NOAH.2021.05.31.Mitsuhara.Misawa.Memoria.2021.JAPANESE.720p.WEB.h264-LATE.mkv
Format : Matroska
Format version : Version 4
File size : 2.68 GiB
Duration : 3 h 12 min
Overall bit rate : 2 000 kb/s

Video
ID : 1
Format : AVC
Format/Info : Advanced Video
Duration : 3 h 12 min
Bit rate : 1 904 kb/s
Width : 1 280 pixels
Height : 720 pixels
Display aspect ratio : 16:9
Frame rate mode : Constant
Frame rate : 30.000 FPS
Color space : YUV
Chroma subsampling : 4:2:0
Bit depth : 8 bits
Scan type : Progressive
Bits/(Pixel*Frame) : 0.069
Stream size : 2.56 GiB (95%)
Forced : No

NOAH Mitsuharu Misawa Memorial

Audio
ID : 2
Format : AAC LC
Format/Info : Advanced Audio
Codec ID : A_AAC-2
Duration : 3 h 12 min
Bit rate : 93.6 kb/s
Channel(s) : 2 channels
Channel layout : L R
Sampling rate : 44.1 kHz
Frame rate : 43.066 FPS
Compression mode : Lossy
Delay relative to video : -23 ms
Stream size : 129 MiB (5%)
Default : Yes
Forced : No

Complete name : NOAH.2021.06.13.Mitsuharu.Misawa.Memorial.2021.I.Will.Never.Forget.This.Day.ENGLISH.720p.WEB.h264-LATE.mkv
Format : Matroska
Format version : Version 4
File size : 4.91 GiB
Duration : 4 h 43 min
Overall bit rate mode : Variable
Overall bit rate : 2 481 kb/s

NOAH Mitsuharu Misawa Memorial

Video
ID : 1
Format : AVC
Format/Info : Advanced Video
Duration : 4 h 43 min
Bit rate mode : Variable
Bit rate : 2 290 kb/s
Maximum bit rate : 8 000 kb/s
Width : 1 280 pixels
Height : 720 pixels
Display aspect ratio : 16:9
Frame rate mode : Constant
Frame rate : 29.970 (30000/1001) FPS
Color space : YUV
Chroma subsampling : 4:2:0
Bit depth : 8 bits
Scan type : Progressive
Bits/(Pixel*Frame) : 0.083
Stream size : 4.53 GiB (92%)
Default : Yes
Forced : No
Color range : Limited
Color primaries : BT.709
Transfer characteristics : BT.709
Matrix coefficients : BT.709

NOAH Mitsuharu Misawa Memorial

Audio
ID : 2
Format : AAC LC
Format/Info : Advanced Audio
Codec ID : A_AAC-2
Duration : 4 h 43 min
Bit rate : 192 kb/s
Channel(s) : 2 channels
Channel layout : L R
Sampling rate : 48.0 kHz
Frame rate : 46.875 FPS
Compression mode : Lossy
Delay relative to video : -33 ms
Stream size : 384 MiB (8%)
Default : Yes
Forced : No

NOAH Mitsuharu Misawa Memorial

 

Complete name : NOAH.2021.05.31.Mitsuhara.Misawa.Memoria.2021.JAPANESE.720p.WEB.h264-LATE.mkv
Format : Matroska
Format version : Version 4
File size : 2.68 GiB
Duration : 3 h 12 min
Overall bit rate : 2 000 kb/s

Video
ID : 1
Format : AVC
Format/Info : Advanced Video
Duration : 3 h 12 min
Bit rate : 1 904 kb/s
Width : 1 280 pixels
Height : 720 pixels
Display aspect ratio : 16:9
Frame rate mode : Constant
Frame rate : 30.000 FPS
Color space : YUV
Chroma subsampling : 4:2:0
Bit depth : 8 bits
Scan type : Progressive
Bits/(Pixel*Frame) : 0.069
Stream size : 2.56 GiB (95%)
Forced : No

NOAH Mitsuharu Misawa Memorial

Audio
ID : 2
Format : AAC LC
Format/Info : Advanced Audio
Codec ID : A_AAC-2
Duration : 3 h 12 min
Bit rate : 93.6 kb/s
Channel(s) : 2 channels
Channel layout : L R
Sampling rate : 44.1 kHz
Frame rate : 43.066 FPS
Compression mode : Lossy
Delay relative to video : -23 ms
Stream size : 129 MiB (5%)
Default : Yes
Forced : No

Complete name : NOAH.2021.06.13.Mitsuharu.Misawa.Memorial.2021.I.Will.Never.Forget.This.Day.ENGLISH.720p.WEB.h264-LATE.mkv
Format : Matroska
Format version : Version 4
File size : 4.91 GiB
Duration : 4 h 43 min
Overall bit rate mode : Variable
Overall bit rate : 2 481 kb/s

NOAH Mitsuharu Misawa Memorial

Video
ID : 1
Format : AVC
Format/Info : Advanced Video
Duration : 4 h 43 min
Bit rate mode : Variable
Bit rate : 2 290 kb/s
Maximum bit rate : 8 000 kb/s
Width : 1 280 pixels
Height : 720 pixels
Display aspect ratio : 16:9
Frame rate mode : Constant
Frame rate : 29.970 (30000/1001) FPS
Color space : YUV
Chroma subsampling : 4:2:0
Bit depth : 8 bits
Scan type : Progressive
Bits/(Pixel*Frame) : 0.083
Stream size : 4.53 GiB (92%)
Default : Yes
Forced : No
Color range : Limited
Color primaries : BT.709
Transfer characteristics : BT.709
Matrix coefficients : BT.709

NOAH Mitsuharu Misawa Memorial

Audio
ID : 2
Format : AAC LC
Format/Info : Advanced Audio
Codec ID : A_AAC-2
Duration : 4 h 43 min
Bit rate : 192 kb/s
Channel(s) : 2 channels
Channel layout : L R
Sampling rate : 48.0 kHz
Frame rate : 46.875 FPS
Compression mode : Lossy
Delay relative to video : -33 ms
Stream size : 384 MiB (8%)
Default : Yes
Forced : No

NOAH Mitsuharu Misawa Memorial

 

Complete name : NOAH.2021.05.31.Mitsuhara.Misawa.Memoria.2021.JAPANESE.720p.WEB.h264-LATE.mkv
Format : Matroska
Format version : Version 4
File size : 2.68 GiB
Duration : 3 h 12 min
Overall bit rate : 2 000 kb/s

Video
ID : 1
Format : AVC
Format/Info : Advanced Video
Duration : 3 h 12 min
Bit rate : 1 904 kb/s
Width : 1 280 pixels
Height : 720 pixels
Display aspect ratio : 16:9
Frame rate mode : Constant
Frame rate : 30.000 FPS
Color space : YUV
Chroma subsampling : 4:2:0
Bit depth : 8 bits
Scan type : Progressive
Bits/(Pixel*Frame) : 0.069
Stream size : 2.56 GiB (95%)
Forced : No

NOAH Mitsuharu Misawa Memorial

Audio
ID : 2
Format : AAC LC
Format/Info : Advanced Audio
Codec ID : A_AAC-2
Duration : 3 h 12 min
Bit rate : 93.6 kb/s
Channel(s) : 2 channels
Channel layout : L R
Sampling rate : 44.1 kHz
Frame rate : 43.066 FPS
Compression mode : Lossy
Delay relative to video : -23 ms
Stream size : 129 MiB (5%)
Default : Yes
Forced : No

Complete name : NOAH.2021.06.13.Mitsuharu.Misawa.Memorial.2021.I.Will.Never.Forget.This.Day.ENGLISH.720p.WEB.h264-LATE.mkv
Format : Matroska
Format version : Version 4
File size : 4.91 GiB
Duration : 4 h 43 min
Overall bit rate mode : Variable
Overall bit rate : 2 481 kb/s

NOAH Mitsuharu Misawa Memorial

Video
ID : 1
Format : AVC
Format/Info : Advanced Video
Duration : 4 h 43 min
Bit rate mode : Variable
Bit rate : 2 290 kb/s
Maximum bit rate : 8 000 kb/s
Width : 1 280 pixels
Height : 720 pixels
Display aspect ratio : 16:9
Frame rate mode : Constant
Frame rate : 29.970 (30000/1001) FPS
Color space : YUV
Chroma subsampling : 4:2:0
Bit depth : 8 bits
Scan type : Progressive
Bits/(Pixel*Frame) : 0.083
Stream size : 4.53 GiB (92%)
Default : Yes
Forced : No
Color range : Limited
Color primaries : BT.709
Transfer characteristics : BT.709
Matrix coefficients : BT.709

NOAH Mitsuharu Misawa Memorial

Audio
ID : 2
Format : AAC LC
Format/Info : Advanced Audio
Codec ID : A_AAC-2
Duration : 4 h 43 min
Bit rate : 192 kb/s
Channel(s) : 2 channels
Channel layout : L R
Sampling rate : 48.0 kHz
Frame rate : 46.875 FPS
Compression mode : Lossy
Delay relative to video : -33 ms
Stream size : 384 MiB (8%)
Default : Yes
Forced : No

NOAH Mitsuharu Misawa Memorial

 

Complete name : NOAH.2021.05.31.Mitsuhara.Misawa.Memoria.2021.JAPANESE.720p.WEB.h264-LATE.mkv
Format : Matroska
Format version : Version 4
File size : 2.68 GiB
Duration : 3 h 12 min
Overall bit rate : 2 000 kb/s

Video
ID : 1
Format : AVC
Format/Info : Advanced Video
Duration : 3 h 12 min
Bit rate : 1 904 kb/s
Width : 1 280 pixels
Height : 720 pixels
Display aspect ratio : 16:9
Frame rate mode : Constant
Frame rate : 30.000 FPS
Color space : YUV
Chroma subsampling : 4:2:0
Bit depth : 8 bits
Scan type : Progressive
Bits/(Pixel*Frame) : 0.069
Stream size : 2.56 GiB (95%)
Forced : No

NOAH Mitsuharu Misawa Memorial

Audio
ID : 2
Format : AAC LC
Format/Info : Advanced Audio
Codec ID : A_AAC-2
Duration : 3 h 12 min
Bit rate : 93.6 kb/s
Channel(s) : 2 channels
Channel layout : L R
Sampling rate : 44.1 kHz
Frame rate : 43.066 FPS
Compression mode : Lossy
Delay relative to video : -23 ms
Stream size : 129 MiB (5%)
Default : Yes
Forced : No

Complete name : NOAH.2021.06.13.Mitsuharu.Misawa.Memorial.2021.I.Will.Never.Forget.This.Day.ENGLISH.720p.WEB.h264-LATE.mkv
Format : Matroska
Format version : Version 4
File size : 4.91 GiB
Duration : 4 h 43 min
Overall bit rate mode : Variable
Overall bit rate : 2 481 kb/s

NOAH Mitsuharu Misawa Memorial

Video
ID : 1
Format : AVC
Format/Info : Advanced Video
Duration : 4 h 43 min
Bit rate mode : Variable
Bit rate : 2 290 kb/s
Maximum bit rate : 8 000 kb/s
Width : 1 280 pixels
Height : 720 pixels
Display aspect ratio : 16:9
Frame rate mode : Constant
Frame rate : 29.970 (30000/1001) FPS
Color space : YUV
Chroma subsampling : 4:2:0
Bit depth : 8 bits
Scan type : Progressive
Bits/(Pixel*Frame) : 0.083
Stream size : 4.53 GiB (92%)
Default : Yes
Forced : No
Color range : Limited
Color primaries : BT.709
Transfer characteristics : BT.709
Matrix coefficients : BT.709

NOAH Mitsuharu Misawa Memorial

Audio
ID : 2
Format : AAC LC
Format/Info : Advanced Audio
Codec ID : A_AAC-2
Duration : 4 h 43 min
Bit rate : 192 kb/s
Channel(s) : 2 channels
Channel layout : L R
Sampling rate : 48.0 kHz
Frame rate : 46.875 FPS
Compression mode : Lossy
Delay relative to video : -33 ms
Stream size : 384 MiB (8%)
Default : Yes
Forced : No

NOAH Mitsuharu Misawa Memorial

 

Complete name : NOAH.2021.05.31.Mitsuhara.Misawa.Memoria.2021.JAPANESE.720p.WEB.h264-LATE.mkv
Format : Matroska
Format version : Version 4
File size : 2.68 GiB
Duration : 3 h 12 min
Overall bit rate : 2 000 kb/s

Video
ID : 1
Format : AVC
Format/Info : Advanced Video
Duration : 3 h 12 min
Bit rate : 1 904 kb/s
Width : 1 280 pixels
Height : 720 pixels
Display aspect ratio : 16:9
Frame rate mode : Constant
Frame rate : 30.000 FPS
Color space : YUV
Chroma subsampling : 4:2:0
Bit depth : 8 bits
Scan type : Progressive
Bits/(Pixel*Frame) : 0.069
Stream size : 2.56 GiB (95%)
Forced : No

NOAH Mitsuharu Misawa Memorial

Audio
ID : 2
Format : AAC LC
Format/Info : Advanced Audio
Codec ID : A_AAC-2
Duration : 3 h 12 min
Bit rate : 93.6 kb/s
Channel(s) : 2 channels
Channel layout : L R
Sampling rate : 44.1 kHz
Frame rate : 43.066 FPS
Compression mode : Lossy
Delay relative to video : -23 ms
Stream size : 129 MiB (5%)
Default : Yes
Forced : No

Complete name : NOAH.2021.06.13.Mitsuharu.Misawa.Memorial.2021.I.Will.Never.Forget.This.Day.ENGLISH.720p.WEB.h264-LATE.mkv
Format : Matroska
Format version : Version 4
File size : 4.91 GiB
Duration : 4 h 43 min
Overall bit rate mode : Variable
Overall bit rate : 2 481 kb/s

NOAH Mitsuharu Misawa Memorial

Video
ID : 1
Format : AVC
Format/Info : Advanced Video
Duration : 4 h 43 min
Bit rate mode : Variable
Bit rate : 2 290 kb/s
Maximum bit rate : 8 000 kb/s
Width : 1 280 pixels
Height : 720 pixels
Display aspect ratio : 16:9
Frame rate mode : Constant
Frame rate : 29.970 (30000/1001) FPS
Color space : YUV
Chroma subsampling : 4:2:0
Bit depth : 8 bits
Scan type : Progressive
Bits/(Pixel*Frame) : 0.083
Stream size : 4.53 GiB (92%)
Default : Yes
Forced : No
Color range : Limited
Color primaries : BT.709
Transfer characteristics : BT.709
Matrix coefficients : BT.709

NOAH Mitsuharu Misawa Memorial

Audio
ID : 2
Format : AAC LC
Format/Info : Advanced Audio
Codec ID : A_AAC-2
Duration : 4 h 43 min
Bit rate : 192 kb/s
Channel(s) : 2 channels
Channel layout : L R
Sampling rate : 48.0 kHz
Frame rate : 46.875 FPS
Compression mode : Lossy
Delay relative to video : -33 ms
Stream size : 384 MiB (8%)
Default : Yes
Forced : No

NOAH Mitsuharu Misawa Memorial

 

Complete name : NOAH.2021.05.31.Mitsuhara.Misawa.Memoria.2021.JAPANESE.720p.WEB.h264-LATE.mkv
Format : Matroska
Format version : Version 4
File size : 2.68 GiB
Duration : 3 h 12 min
Overall bit rate : 2 000 kb/s

Video
ID : 1
Format : AVC
Format/Info : Advanced Video
Duration : 3 h 12 min
Bit rate : 1 904 kb/s
Width : 1 280 pixels
Height : 720 pixels
Display aspect ratio : 16:9
Frame rate mode : Constant
Frame rate : 30.000 FPS
Color space : YUV
Chroma subsampling : 4:2:0
Bit depth : 8 bits
Scan type : Progressive
Bits/(Pixel*Frame) : 0.069
Stream size : 2.56 GiB (95%)
Forced : No

NOAH Mitsuharu Misawa Memorial

Audio
ID : 2
Format : AAC LC
Format/Info : Advanced Audio
Codec ID : A_AAC-2
Duration : 3 h 12 min
Bit rate : 93.6 kb/s
Channel(s) : 2 channels
Channel layout : L R
Sampling rate : 44.1 kHz
Frame rate : 43.066 FPS
Compression mode : Lossy
Delay relative to video : -23 ms
Stream size : 129 MiB (5%)
Default : Yes
Forced : No

Complete name : NOAH.2021.06.13.Mitsuharu.Misawa.Memorial.2021.I.Will.Never.Forget.This.Day.ENGLISH.720p.WEB.h264-LATE.mkv
Format : Matroska
Format version : Version 4
File size : 4.91 GiB
Duration : 4 h 43 min
Overall bit rate mode : Variable
Overall bit rate : 2 481 kb/s

NOAH Mitsuharu Misawa Memorial

Video
ID : 1
Format : AVC
Format/Info : Advanced Video
Duration : 4 h 43 min
Bit rate mode : Variable
Bit rate : 2 290 kb/s
Maximum bit rate : 8 000 kb/s
Width : 1 280 pixels
Height : 720 pixels
Display aspect ratio : 16:9
Frame rate mode : Constant
Frame rate : 29.970 (30000/1001) FPS
Color space : YUV
Chroma subsampling : 4:2:0
Bit depth : 8 bits
Scan type : Progressive
Bits/(Pixel*Frame) : 0.083
Stream size : 4.53 GiB (92%)
Default : Yes
Forced : No
Color range : Limited
Color primaries : BT.709
Transfer characteristics : BT.709
Matrix coefficients : BT.709

NOAH Mitsuharu Misawa Memorial

Audio
ID : 2
Format : AAC LC
Format/Info : Advanced Audio
Codec ID : A_AAC-2
Duration : 4 h 43 min
Bit rate : 192 kb/s
Channel(s) : 2 channels
Channel layout : L R
Sampling rate : 48.0 kHz
Frame rate : 46.875 FPS
Compression mode : Lossy
Delay relative to video : -33 ms
Stream size : 384 MiB (8%)
Default : Yes
Forced : No

NOAH Mitsuharu Misawa Memorial

 

Complete name : NOAH.2021.05.31.Mitsuhara.Misawa.Memoria.2021.JAPANESE.720p.WEB.h264-LATE.mkv
Format : Matroska
Format version : Version 4
File size : 2.68 GiB
Duration : 3 h 12 min
Overall bit rate : 2 000 kb/s

Video
ID : 1
Format : AVC
Format/Info : Advanced Video
Duration : 3 h 12 min
Bit rate : 1 904 kb/s
Width : 1 280 pixels
Height : 720 pixels
Display aspect ratio : 16:9
Frame rate mode : Constant
Frame rate : 30.000 FPS
Color space : YUV
Chroma subsampling : 4:2:0
Bit depth : 8 bits
Scan type : Progressive
Bits/(Pixel*Frame) : 0.069
Stream size : 2.56 GiB (95%)
Forced : No

NOAH Mitsuharu Misawa Memorial

Audio
ID : 2
Format : AAC LC
Format/Info : Advanced Audio
Codec ID : A_AAC-2
Duration : 3 h 12 min
Bit rate : 93.6 kb/s
Channel(s) : 2 channels
Channel layout : L R
Sampling rate : 44.1 kHz
Frame rate : 43.066 FPS
Compression mode : Lossy
Delay relative to video : -23 ms
Stream size : 129 MiB (5%)
Default : Yes
Forced : No

Complete name : NOAH.2021.06.13.Mitsuharu.Misawa.Memorial.2021.I.Will.Never.Forget.This.Day.ENGLISH.720p.WEB.h264-LATE.mkv
Format : Matroska
Format version : Version 4
File size : 4.91 GiB
Duration : 4 h 43 min
Overall bit rate mode : Variable
Overall bit rate : 2 481 kb/s

NOAH Mitsuharu Misawa Memorial

Video
ID : 1
Format : AVC
Format/Info : Advanced Video
Duration : 4 h 43 min
Bit rate mode : Variable
Bit rate : 2 290 kb/s
Maximum bit rate : 8 000 kb/s
Width : 1 280 pixels
Height : 720 pixels
Display aspect ratio : 16:9
Frame rate mode : Constant
Frame rate : 29.970 (30000/1001) FPS
Color space : YUV
Chroma subsampling : 4:2:0
Bit depth : 8 bits
Scan type : Progressive
Bits/(Pixel*Frame) : 0.083
Stream size : 4.53 GiB (92%)
Default : Yes
Forced : No
Color range : Limited
Color primaries : BT.709
Transfer characteristics : BT.709
Matrix coefficients : BT.709

NOAH Mitsuharu Misawa Memorial

Audio
ID : 2
Format : AAC LC
Format/Info : Advanced Audio
Codec ID : A_AAC-2
Duration : 4 h 43 min
Bit rate : 192 kb/s
Channel(s) : 2 channels
Channel layout : L R
Sampling rate : 48.0 kHz
Frame rate : 46.875 FPS
Compression mode : Lossy
Delay relative to video : -33 ms
Stream size : 384 MiB (8%)
Default : Yes
Forced : No

NOAH Mitsuharu Misawa Memorial

 

Complete name : NOAH.2021.05.31.Mitsuhara.Misawa.Memoria.2021.JAPANESE.720p.WEB.h264-LATE.mkv
Format : Matroska
Format version : Version 4
File size : 2.68 GiB
Duration : 3 h 12 min
Overall bit rate : 2 000 kb/s

Video
ID : 1
Format : AVC
Format/Info : Advanced Video
Duration : 3 h 12 min
Bit rate : 1 904 kb/s
Width : 1 280 pixels
Height : 720 pixels
Display aspect ratio : 16:9
Frame rate mode : Constant
Frame rate : 30.000 FPS
Color space : YUV
Chroma subsampling : 4:2:0
Bit depth : 8 bits
Scan type : Progressive
Bits/(Pixel*Frame) : 0.069
Stream size : 2.56 GiB (95%)
Forced : No

NOAH Mitsuharu Misawa Memorial

Audio
ID : 2
Format : AAC LC
Format/Info : Advanced Audio
Codec ID : A_AAC-2
Duration : 3 h 12 min
Bit rate : 93.6 kb/s
Channel(s) : 2 channels
Channel layout : L R
Sampling rate : 44.1 kHz
Frame rate : 43.066 FPS
Compression mode : Lossy
Delay relative to video : -23 ms
Stream size : 129 MiB (5%)
Default : Yes
Forced : No

Complete name : NOAH.2021.06.13.Mitsuharu.Misawa.Memorial.2021.I.Will.Never.Forget.This.Day.ENGLISH.720p.WEB.h264-LATE.mkv
Format : Matroska
Format version : Version 4
File size : 4.91 GiB
Duration : 4 h 43 min
Overall bit rate mode : Variable
Overall bit rate : 2 481 kb/s

NOAH Mitsuharu Misawa Memorial

Video
ID : 1
Format : AVC
Format/Info : Advanced Video
Duration : 4 h 43 min
Bit rate mode : Variable
Bit rate : 2 290 kb/s
Maximum bit rate : 8 000 kb/s
Width : 1 280 pixels
Height : 720 pixels
Display aspect ratio : 16:9
Frame rate mode : Constant
Frame rate : 29.970 (30000/1001) FPS
Color space : YUV
Chroma subsampling : 4:2:0
Bit depth : 8 bits
Scan type : Progressive
Bits/(Pixel*Frame) : 0.083
Stream size : 4.53 GiB (92%)
Default : Yes
Forced : No
Color range : Limited
Color primaries : BT.709
Transfer characteristics : BT.709
Matrix coefficients : BT.709

NOAH Mitsuharu Misawa Memorial

Audio
ID : 2
Format : AAC LC
Format/Info : Advanced Audio
Codec ID : A_AAC-2
Duration : 4 h 43 min
Bit rate : 192 kb/s
Channel(s) : 2 channels
Channel layout : L R
Sampling rate : 48.0 kHz
Frame rate : 46.875 FPS
Compression mode : Lossy
Delay relative to video : -33 ms
Stream size : 384 MiB (8%)
Default : Yes
Forced : No

NOAH Mitsuharu Misawa Memorial

 

Complete name : NOAH.2021.05.31.Mitsuhara.Misawa.Memoria.2021.JAPANESE.720p.WEB.h264-LATE.mkv
Format : Matroska
Format version : Version 4
File size : 2.68 GiB
Duration : 3 h 12 min
Overall bit rate : 2 000 kb/s

Video
ID : 1
Format : AVC
Format/Info : Advanced Video
Duration : 3 h 12 min
Bit rate : 1 904 kb/s
Width : 1 280 pixels
Height : 720 pixels
Display aspect ratio : 16:9
Frame rate mode : Constant
Frame rate : 30.000 FPS
Color space : YUV
Chroma subsampling : 4:2:0
Bit depth : 8 bits
Scan type : Progressive
Bits/(Pixel*Frame) : 0.069
Stream size : 2.56 GiB (95%)
Forced : No

NOAH Mitsuharu Misawa Memorial

Audio
ID : 2
Format : AAC LC
Format/Info : Advanced Audio
Codec ID : A_AAC-2
Duration : 3 h 12 min
Bit rate : 93.6 kb/s
Channel(s) : 2 channels
Channel layout : L R
Sampling rate : 44.1 kHz
Frame rate : 43.066 FPS
Compression mode : Lossy
Delay relative to video : -23 ms
Stream size : 129 MiB (5%)
Default : Yes
Forced : No

Complete name : NOAH.2021.06.13.Mitsuharu.Misawa.Memorial.2021.I.Will.Never.Forget.This.Day.ENGLISH.720p.WEB.h264-LATE.mkv
Format : Matroska
Format version : Version 4
File size : 4.91 GiB
Duration : 4 h 43 min
Overall bit rate mode : Variable
Overall bit rate : 2 481 kb/s

NOAH Mitsuharu Misawa Memorial

Video
ID : 1
Format : AVC
Format/Info : Advanced Video
Duration : 4 h 43 min
Bit rate mode : Variable
Bit rate : 2 290 kb/s
Maximum bit rate : 8 000 kb/s
Width : 1 280 pixels
Height : 720 pixels
Display aspect ratio : 16:9
Frame rate mode : Constant
Frame rate : 29.970 (30000/1001) FPS
Color space : YUV
Chroma subsampling : 4:2:0
Bit depth : 8 bits
Scan type : Progressive
Bits/(Pixel*Frame) : 0.083
Stream size : 4.53 GiB (92%)
Default : Yes
Forced : No
Color range : Limited
Color primaries : BT.709
Transfer characteristics : BT.709
Matrix coefficients : BT.709

NOAH Mitsuharu Misawa Memorial

Audio
ID : 2
Format : AAC LC
Format/Info : Advanced Audio
Codec ID : A_AAC-2
Duration : 4 h 43 min
Bit rate : 192 kb/s
Channel(s) : 2 channels
Channel layout : L R
Sampling rate : 48.0 kHz
Frame rate : 46.875 FPS
Compression mode : Lossy
Delay relative to video : -33 ms
Stream size : 384 MiB (8%)
Default : Yes
Forced : No

NOAH Mitsuharu Misawa Memorial

 

Complete name : NOAH.2021.05.31.Mitsuhara.Misawa.Memoria.2021.JAPANESE.720p.WEB.h264-LATE.mkv
Format : Matroska
Format version : Version 4
File size : 2.68 GiB
Duration : 3 h 12 min
Overall bit rate : 2 000 kb/s

Video
ID : 1
Format : AVC
Format/Info : Advanced Video
Duration : 3 h 12 min
Bit rate : 1 904 kb/s
Width : 1 280 pixels
Height : 720 pixels
Display aspect ratio : 16:9
Frame rate mode : Constant
Frame rate : 30.000 FPS
Color space : YUV
Chroma subsampling : 4:2:0
Bit depth : 8 bits
Scan type : Progressive
Bits/(Pixel*Frame) : 0.069
Stream size : 2.56 GiB (95%)
Forced : No

NOAH Mitsuharu Misawa Memorial

Audio
ID : 2
Format : AAC LC
Format/Info : Advanced Audio
Codec ID : A_AAC-2
Duration : 3 h 12 min
Bit rate : 93.6 kb/s
Channel(s) : 2 channels
Channel layout : L R
Sampling rate : 44.1 kHz
Frame rate : 43.066 FPS
Compression mode : Lossy
Delay relative to video : -23 ms
Stream size : 129 MiB (5%)
Default : Yes
Forced : No

Complete name : NOAH.2021.06.13.Mitsuharu.Misawa.Memorial.2021.I.Will.Never.Forget.This.Day.ENGLISH.720p.WEB.h264-LATE.mkv
Format : Matroska
Format version : Version 4
File size : 4.91 GiB
Duration : 4 h 43 min
Overall bit rate mode : Variable
Overall bit rate : 2 481 kb/s

NOAH Mitsuharu Misawa Memorial

Video
ID : 1
Format : AVC
Format/Info : Advanced Video
Duration : 4 h 43 min
Bit rate mode : Variable
Bit rate : 2 290 kb/s
Maximum bit rate : 8 000 kb/s
Width : 1 280 pixels
Height : 720 pixels
Display aspect ratio : 16:9
Frame rate mode : Constant
Frame rate : 29.970 (30000/1001) FPS
Color space : YUV
Chroma subsampling : 4:2:0
Bit depth : 8 bits
Scan type : Progressive
Bits/(Pixel*Frame) : 0.083
Stream size : 4.53 GiB (92%)
Default : Yes
Forced : No
Color range : Limited
Color primaries : BT.709
Transfer characteristics : BT.709
Matrix coefficients : BT.709

NOAH Mitsuharu Misawa Memorial

Audio
ID : 2
Format : AAC LC
Format/Info : Advanced Audio
Codec ID : A_AAC-2
Duration : 4 h 43 min
Bit rate : 192 kb/s
Channel(s) : 2 channels
Channel layout : L R
Sampling rate : 48.0 kHz
Frame rate : 46.875 FPS
Compression mode : Lossy
Delay relative to video : -33 ms
Stream size : 384 MiB (8%)
Default : Yes
Forced : No

NOAH Mitsuharu Misawa Memorial

 

Complete name : NOAH.2021.05.31.Mitsuhara.Misawa.Memoria.2021.JAPANESE.720p.WEB.h264-LATE.mkv
Format : Matroska
Format version : Version 4
File size : 2.68 GiB
Duration : 3 h 12 min
Overall bit rate : 2 000 kb/s

Video
ID : 1
Format : AVC
Format/Info : Advanced Video
Duration : 3 h 12 min
Bit rate : 1 904 kb/s
Width : 1 280 pixels
Height : 720 pixels
Display aspect ratio : 16:9
Frame rate mode : Constant
Frame rate : 30.000 FPS
Color space : YUV
Chroma subsampling : 4:2:0
Bit depth : 8 bits
Scan type : Progressive
Bits/(Pixel*Frame) : 0.069
Stream size : 2.56 GiB (95%)
Forced : No

NOAH Mitsuharu Misawa Memorial

Audio
ID : 2
Format : AAC LC
Format/Info : Advanced Audio
Codec ID : A_AAC-2
Duration : 3 h 12 min
Bit rate : 93.6 kb/s
Channel(s) : 2 channels
Channel layout : L R
Sampling rate : 44.1 kHz
Frame rate : 43.066 FPS
Compression mode : Lossy
Delay relative to video : -23 ms
Stream size : 129 MiB (5%)
Default : Yes
Forced : No

Complete name : NOAH.2021.06.13.Mitsuharu.Misawa.Memorial.2021.I.Will.Never.Forget.This.Day.ENGLISH.720p.WEB.h264-LATE.mkv
Format : Matroska
Format version : Version 4
File size : 4.91 GiB
Duration : 4 h 43 min
Overall bit rate mode : Variable
Overall bit rate : 2 481 kb/s

NOAH Mitsuharu Misawa Memorial

Video
ID : 1
Format : AVC
Format/Info : Advanced Video
Duration : 4 h 43 min
Bit rate mode : Variable
Bit rate : 2 290 kb/s
Maximum bit rate : 8 000 kb/s
Width : 1 280 pixels
Height : 720 pixels
Display aspect ratio : 16:9
Frame rate mode : Constant
Frame rate : 29.970 (30000/1001) FPS
Color space : YUV
Chroma subsampling : 4:2:0
Bit depth : 8 bits
Scan type : Progressive
Bits/(Pixel*Frame) : 0.083
Stream size : 4.53 GiB (92%)
Default : Yes
Forced : No
Color range : Limited
Color primaries : BT.709
Transfer characteristics : BT.709
Matrix coefficients : BT.709

NOAH Mitsuharu Misawa Memorial

Audio
ID : 2
Format : AAC LC
Format/Info : Advanced Audio
Codec ID : A_AAC-2
Duration : 4 h 43 min
Bit rate : 192 kb/s
Channel(s) : 2 channels
Channel layout : L R
Sampling rate : 48.0 kHz
Frame rate : 46.875 FPS
Compression mode : Lossy
Delay relative to video : -33 ms
Stream size : 384 MiB (8%)
Default : Yes
Forced : No

NOAH Mitsuharu Misawa Memorial

 

Complete name : NOAH.2021.05.31.Mitsuhara.Misawa.Memoria.2021.JAPANESE.720p.WEB.h264-LATE.mkv
Format : Matroska
Format version : Version 4
File size : 2.68 GiB
Duration : 3 h 12 min
Overall bit rate : 2 000 kb/s

Video
ID : 1
Format : AVC
Format/Info : Advanced Video
Duration : 3 h 12 min
Bit rate : 1 904 kb/s
Width : 1 280 pixels
Height : 720 pixels
Display aspect ratio : 16:9
Frame rate mode : Constant
Frame rate : 30.000 FPS
Color space : YUV
Chroma subsampling : 4:2:0
Bit depth : 8 bits
Scan type : Progressive
Bits/(Pixel*Frame) : 0.069
Stream size : 2.56 GiB (95%)
Forced : No

NOAH Mitsuharu Misawa Memorial

Audio
ID : 2
Format : AAC LC
Format/Info : Advanced Audio
Codec ID : A_AAC-2
Duration : 3 h 12 min
Bit rate : 93.6 kb/s
Channel(s) : 2 channels
Channel layout : L R
Sampling rate : 44.1 kHz
Frame rate : 43.066 FPS
Compression mode : Lossy
Delay relative to video : -23 ms
Stream size : 129 MiB (5%)
Default : Yes
Forced : No

Complete name : NOAH.2021.06.13.Mitsuharu.Misawa.Memorial.2021.I.Will.Never.Forget.This.Day.ENGLISH.720p.WEB.h264-LATE.mkv
Format : Matroska
Format version : Version 4
File size : 4.91 GiB
Duration : 4 h 43 min
Overall bit rate mode : Variable
Overall bit rate : 2 481 kb/s

NOAH Mitsuharu Misawa Memorial

Video
ID : 1
Format : AVC
Format/Info : Advanced Video
Duration : 4 h 43 min
Bit rate mode : Variable
Bit rate : 2 290 kb/s
Maximum bit rate : 8 000 kb/s
Width : 1 280 pixels
Height : 720 pixels
Display aspect ratio : 16:9
Frame rate mode : Constant
Frame rate : 29.970 (30000/1001) FPS
Color space : YUV
Chroma subsampling : 4:2:0
Bit depth : 8 bits
Scan type : Progressive
Bits/(Pixel*Frame) : 0.083
Stream size : 4.53 GiB (92%)
Default : Yes
Forced : No
Color range : Limited
Color primaries : BT.709
Transfer characteristics : BT.709
Matrix coefficients : BT.709

NOAH Mitsuharu Misawa Memorial

Audio
ID : 2
Format : AAC LC
Format/Info : Advanced Audio
Codec ID : A_AAC-2
Duration : 4 h 43 min
Bit rate : 192 kb/s
Channel(s) : 2 channels
Channel layout : L R
Sampling rate : 48.0 kHz
Frame rate : 46.875 FPS
Compression mode : Lossy
Delay relative to video : -33 ms
Stream size : 384 MiB (8%)
Default : Yes
Forced : No

NOAH Mitsuharu Misawa Memorial

 

 

 

 

 

[collapse]

 

 

https://dx-tv.com/

Leave a Reply

Your email address will not be published. Required fields are marked *

This site uses Akismet to reduce spam. Learn how your comment data is processed.

Previous Post
NJPW Kizuna Road 2021

Watch NJPW Free Replay: Kizuna Road 2021 Day 1

Next Post
WWE Most Wanted Treasures

WWEs Most Wanted Treasures S01E08 Online Free Replay