WWEs Most Wanted Treasures S01E08 Online Free Replay DX-TV

Contents show

WWEs Most Wanted Treasures

 WWEs Most Wanted Treasures

 

 

 

Download Links with premium High Speed


 

Dopapk

 

 

Show Links

 

http://shrt10.com/dSCdlo
http://shrt10.com/hIIpTM

 

[collapse]

 

 

Nitroflare

 

 

Show Links

 

http://shrt10.com/V8OYzQe
http://shrt10.com/gPIIW9rG6

 

[collapse]

 

 

Rapidgator

 

 

Show Links

 

http://shrt10.com/IzopW
http://shrt10.com/wWBZf8n

 

[collapse]

 

 

Uploaded

 

 

Show Links

 

http://shrt10.com/zwVStMCjV
http://shrt10.com/1xdLt6ZVb

 

[collapse]

 

 

Watch online

 

Server 1

 

 

 

 

WWEs Most Wanted Treasures

 

 

 

 

Server-2

 

 

 

 

watch now

 

 

 

|Server-4

 

 

 

 

watch now

 

 

Uploaded By Site DX-TV.com

 

 

Show Info This Show

WWEs Most Wanted Treasures

 

Complete name : WWEs Most Wanted Treasures S01E08 .mkv
Format : Matroska
Format version : Version 4
File size : 1.13 GiB
Duration : 1 h 24 min
Overall bit rate : 1 926 kb/s

Video
ID : 1
Format : AVC
Format/Info : Advanced Video
Duration : 1 h 24 min
Width : 960 pixels
Height : 540 pixels
Display aspect ratio : 16:9
Frame rate mode : Constant
Frame rate : 23.976 (24000/1001) FPS
Color space : YUV
Chroma subsampling : 4:2:0
Bit depth : 8 bits
Scan type : Progressive
Default : Yes
Forced : No
Color range : Limited
Color primaries : BT.709
Transfer characteristics : BT.709
Matrix coefficients : BT.709

WWEs Most Wanted Treasures

Audio
ID : 2
Format : AAC LC
Format/Info : Advanced Audio
Codec ID : A_AAC-2
Duration : 1 h 24 min
Channel(s) : 2 channels
Channel layout : L R
Sampling rate : 48.0 kHz
Frame rate : 46.875 FPS (1024 SPF)
Compression mode : Lossy
Delay relative to video : -926 ms
Default : Yes
Forced : No

Complete name : WWEs.Most.Wanted.Treasures.S01E08.720p.WEB.h264-BAE.mkv
Format : Matroska
Format version : Version 4
File size : 1.54 GiB
Duration : 1 h 23 min
Overall bit rate : 2 621 kb/s

WWEs Most Wanted Treasures

Video
ID : 1
Format : AVC
Format/Info : Advanced Video
Duration : 1 h 23 min
Bit rate : 2 491 kb/s
Width : 1 280 pixels
Height : 720 pixels
Display aspect ratio : 16:9
Frame rate mode : Constant
Frame rate : 23.976 (24000/1001) FPS
Color space : YUV
Chroma subsampling : 4:2:0
Bit depth : 8 bits
Scan type : Progressive
Bits/(Pixel*Frame) : 0.113
Stream size : 1.46 GiB (95%)
Language : English
Default : Yes
Forced : No
Color range : Limited
Color primaries : BT.709
Transfer characteristics : BT.709
Matrix coefficients : BT.709

WWEs Most Wanted Treasures

Audio
ID : 2
Format : AAC LC
Format/Info : Advanced Audio
Codec ID : A_AAC-2
Duration : 1 h 23 min
Bit rate : 128 kb/s
Channel(s) : 2 channels
Channel layout : L R
Sampling rate : 48.0 kHz
Frame rate : 46.875 FPS (1024 SPF)
Compression mode : Lossy
Stream size : 76.8 MiB (5%)
Language : English
Default : Yes
Forced : No

Text
ID : 3
Format : UTF-8
Codec ID : S_TEXT/UTF8
Codec ID/Info : UTF-8 Plain Text
Duration : 1 h 23 min
Bit rate : 129 b/s
Count of elements : 1850
Stream size : 79.7 KiB (0%)
Language : English
Default : No
Forced : No

WWEs Most Wanted Treasures

 

Complete name : WWEs Most Wanted Treasures S01E08 .mkv
Format : Matroska
Format version : Version 4
File size : 1.13 GiB
Duration : 1 h 24 min
Overall bit rate : 1 926 kb/s

Video
ID : 1
Format : AVC
Format/Info : Advanced Video
Duration : 1 h 24 min
Width : 960 pixels
Height : 540 pixels
Display aspect ratio : 16:9
Frame rate mode : Constant
Frame rate : 23.976 (24000/1001) FPS
Color space : YUV
Chroma subsampling : 4:2:0
Bit depth : 8 bits
Scan type : Progressive
Default : Yes
Forced : No
Color range : Limited
Color primaries : BT.709
Transfer characteristics : BT.709
Matrix coefficients : BT.709

WWEs Most Wanted Treasures

Audio
ID : 2
Format : AAC LC
Format/Info : Advanced Audio
Codec ID : A_AAC-2
Duration : 1 h 24 min
Channel(s) : 2 channels
Channel layout : L R
Sampling rate : 48.0 kHz
Frame rate : 46.875 FPS (1024 SPF)
Compression mode : Lossy
Delay relative to video : -926 ms
Default : Yes
Forced : No

Complete name : WWEs.Most.Wanted.Treasures.S01E08.720p.WEB.h264-BAE.mkv
Format : Matroska
Format version : Version 4
File size : 1.54 GiB
Duration : 1 h 23 min
Overall bit rate : 2 621 kb/s

WWEs Most Wanted Treasures

Video
ID : 1
Format : AVC
Format/Info : Advanced Video
Duration : 1 h 23 min
Bit rate : 2 491 kb/s
Width : 1 280 pixels
Height : 720 pixels
Display aspect ratio : 16:9
Frame rate mode : Constant
Frame rate : 23.976 (24000/1001) FPS
Color space : YUV
Chroma subsampling : 4:2:0
Bit depth : 8 bits
Scan type : Progressive
Bits/(Pixel*Frame) : 0.113
Stream size : 1.46 GiB (95%)
Language : English
Default : Yes
Forced : No
Color range : Limited
Color primaries : BT.709
Transfer characteristics : BT.709
Matrix coefficients : BT.709

WWEs Most Wanted Treasures

Audio
ID : 2
Format : AAC LC
Format/Info : Advanced Audio
Codec ID : A_AAC-2
Duration : 1 h 23 min
Bit rate : 128 kb/s
Channel(s) : 2 channels
Channel layout : L R
Sampling rate : 48.0 kHz
Frame rate : 46.875 FPS (1024 SPF)
Compression mode : Lossy
Stream size : 76.8 MiB (5%)
Language : English
Default : Yes
Forced : No

Text
ID : 3
Format : UTF-8
Codec ID : S_TEXT/UTF8
Codec ID/Info : UTF-8 Plain Text
Duration : 1 h 23 min
Bit rate : 129 b/s
Count of elements : 1850
Stream size : 79.7 KiB (0%)
Language : English
Default : No
Forced : No

WWEs Most Wanted Treasures

 

Complete name : WWEs Most Wanted Treasures S01E08 .mkv
Format : Matroska
Format version : Version 4
File size : 1.13 GiB
Duration : 1 h 24 min
Overall bit rate : 1 926 kb/s

Video
ID : 1
Format : AVC
Format/Info : Advanced Video
Duration : 1 h 24 min
Width : 960 pixels
Height : 540 pixels
Display aspect ratio : 16:9
Frame rate mode : Constant
Frame rate : 23.976 (24000/1001) FPS
Color space : YUV
Chroma subsampling : 4:2:0
Bit depth : 8 bits
Scan type : Progressive
Default : Yes
Forced : No
Color range : Limited
Color primaries : BT.709
Transfer characteristics : BT.709
Matrix coefficients : BT.709

WWEs Most Wanted Treasures

Audio
ID : 2
Format : AAC LC
Format/Info : Advanced Audio
Codec ID : A_AAC-2
Duration : 1 h 24 min
Channel(s) : 2 channels
Channel layout : L R
Sampling rate : 48.0 kHz
Frame rate : 46.875 FPS (1024 SPF)
Compression mode : Lossy
Delay relative to video : -926 ms
Default : Yes
Forced : No

Complete name : WWEs.Most.Wanted.Treasures.S01E08.720p.WEB.h264-BAE.mkv
Format : Matroska
Format version : Version 4
File size : 1.54 GiB
Duration : 1 h 23 min
Overall bit rate : 2 621 kb/s

WWEs Most Wanted Treasures

Video
ID : 1
Format : AVC
Format/Info : Advanced Video
Duration : 1 h 23 min
Bit rate : 2 491 kb/s
Width : 1 280 pixels
Height : 720 pixels
Display aspect ratio : 16:9
Frame rate mode : Constant
Frame rate : 23.976 (24000/1001) FPS
Color space : YUV
Chroma subsampling : 4:2:0
Bit depth : 8 bits
Scan type : Progressive
Bits/(Pixel*Frame) : 0.113
Stream size : 1.46 GiB (95%)
Language : English
Default : Yes
Forced : No
Color range : Limited
Color primaries : BT.709
Transfer characteristics : BT.709
Matrix coefficients : BT.709

WWEs Most Wanted Treasures

Audio
ID : 2
Format : AAC LC
Format/Info : Advanced Audio
Codec ID : A_AAC-2
Duration : 1 h 23 min
Bit rate : 128 kb/s
Channel(s) : 2 channels
Channel layout : L R
Sampling rate : 48.0 kHz
Frame rate : 46.875 FPS (1024 SPF)
Compression mode : Lossy
Stream size : 76.8 MiB (5%)
Language : English
Default : Yes
Forced : No

Text
ID : 3
Format : UTF-8
Codec ID : S_TEXT/UTF8
Codec ID/Info : UTF-8 Plain Text
Duration : 1 h 23 min
Bit rate : 129 b/s
Count of elements : 1850
Stream size : 79.7 KiB (0%)
Language : English
Default : No
Forced : No

WWEs Most Wanted Treasures

 

Complete name : WWEs Most Wanted Treasures S01E08 .mkv
Format : Matroska
Format version : Version 4
File size : 1.13 GiB
Duration : 1 h 24 min
Overall bit rate : 1 926 kb/s

Video
ID : 1
Format : AVC
Format/Info : Advanced Video
Duration : 1 h 24 min
Width : 960 pixels
Height : 540 pixels
Display aspect ratio : 16:9
Frame rate mode : Constant
Frame rate : 23.976 (24000/1001) FPS
Color space : YUV
Chroma subsampling : 4:2:0
Bit depth : 8 bits
Scan type : Progressive
Default : Yes
Forced : No
Color range : Limited
Color primaries : BT.709
Transfer characteristics : BT.709
Matrix coefficients : BT.709

WWEs Most Wanted Treasures

Audio
ID : 2
Format : AAC LC
Format/Info : Advanced Audio
Codec ID : A_AAC-2
Duration : 1 h 24 min
Channel(s) : 2 channels
Channel layout : L R
Sampling rate : 48.0 kHz
Frame rate : 46.875 FPS (1024 SPF)
Compression mode : Lossy
Delay relative to video : -926 ms
Default : Yes
Forced : No

Complete name : WWEs.Most.Wanted.Treasures.S01E08.720p.WEB.h264-BAE.mkv
Format : Matroska
Format version : Version 4
File size : 1.54 GiB
Duration : 1 h 23 min
Overall bit rate : 2 621 kb/s

WWEs Most Wanted Treasures

Video
ID : 1
Format : AVC
Format/Info : Advanced Video
Duration : 1 h 23 min
Bit rate : 2 491 kb/s
Width : 1 280 pixels
Height : 720 pixels
Display aspect ratio : 16:9
Frame rate mode : Constant
Frame rate : 23.976 (24000/1001) FPS
Color space : YUV
Chroma subsampling : 4:2:0
Bit depth : 8 bits
Scan type : Progressive
Bits/(Pixel*Frame) : 0.113
Stream size : 1.46 GiB (95%)
Language : English
Default : Yes
Forced : No
Color range : Limited
Color primaries : BT.709
Transfer characteristics : BT.709
Matrix coefficients : BT.709

WWEs Most Wanted Treasures

Audio
ID : 2
Format : AAC LC
Format/Info : Advanced Audio
Codec ID : A_AAC-2
Duration : 1 h 23 min
Bit rate : 128 kb/s
Channel(s) : 2 channels
Channel layout : L R
Sampling rate : 48.0 kHz
Frame rate : 46.875 FPS (1024 SPF)
Compression mode : Lossy
Stream size : 76.8 MiB (5%)
Language : English
Default : Yes
Forced : No

Text
ID : 3
Format : UTF-8
Codec ID : S_TEXT/UTF8
Codec ID/Info : UTF-8 Plain Text
Duration : 1 h 23 min
Bit rate : 129 b/s
Count of elements : 1850
Stream size : 79.7 KiB (0%)
Language : English
Default : No
Forced : No

WWEs Most Wanted Treasures

 

Complete name : WWEs Most Wanted Treasures S01E08 .mkv
Format : Matroska
Format version : Version 4
File size : 1.13 GiB
Duration : 1 h 24 min
Overall bit rate : 1 926 kb/s

Video
ID : 1
Format : AVC
Format/Info : Advanced Video
Duration : 1 h 24 min
Width : 960 pixels
Height : 540 pixels
Display aspect ratio : 16:9
Frame rate mode : Constant
Frame rate : 23.976 (24000/1001) FPS
Color space : YUV
Chroma subsampling : 4:2:0
Bit depth : 8 bits
Scan type : Progressive
Default : Yes
Forced : No
Color range : Limited
Color primaries : BT.709
Transfer characteristics : BT.709
Matrix coefficients : BT.709

WWEs Most Wanted Treasures

Audio
ID : 2
Format : AAC LC
Format/Info : Advanced Audio
Codec ID : A_AAC-2
Duration : 1 h 24 min
Channel(s) : 2 channels
Channel layout : L R
Sampling rate : 48.0 kHz
Frame rate : 46.875 FPS (1024 SPF)
Compression mode : Lossy
Delay relative to video : -926 ms
Default : Yes
Forced : No

Complete name : WWEs.Most.Wanted.Treasures.S01E08.720p.WEB.h264-BAE.mkv
Format : Matroska
Format version : Version 4
File size : 1.54 GiB
Duration : 1 h 23 min
Overall bit rate : 2 621 kb/s

WWEs Most Wanted Treasures

Video
ID : 1
Format : AVC
Format/Info : Advanced Video
Duration : 1 h 23 min
Bit rate : 2 491 kb/s
Width : 1 280 pixels
Height : 720 pixels
Display aspect ratio : 16:9
Frame rate mode : Constant
Frame rate : 23.976 (24000/1001) FPS
Color space : YUV
Chroma subsampling : 4:2:0
Bit depth : 8 bits
Scan type : Progressive
Bits/(Pixel*Frame) : 0.113
Stream size : 1.46 GiB (95%)
Language : English
Default : Yes
Forced : No
Color range : Limited
Color primaries : BT.709
Transfer characteristics : BT.709
Matrix coefficients : BT.709

WWEs Most Wanted Treasures

Audio
ID : 2
Format : AAC LC
Format/Info : Advanced Audio
Codec ID : A_AAC-2
Duration : 1 h 23 min
Bit rate : 128 kb/s
Channel(s) : 2 channels
Channel layout : L R
Sampling rate : 48.0 kHz
Frame rate : 46.875 FPS (1024 SPF)
Compression mode : Lossy
Stream size : 76.8 MiB (5%)
Language : English
Default : Yes
Forced : No

Text
ID : 3
Format : UTF-8
Codec ID : S_TEXT/UTF8
Codec ID/Info : UTF-8 Plain Text
Duration : 1 h 23 min
Bit rate : 129 b/s
Count of elements : 1850
Stream size : 79.7 KiB (0%)
Language : English
Default : No
Forced : No

WWEs Most Wanted Treasures

 

Complete name : WWEs Most Wanted Treasures S01E08 .mkv
Format : Matroska
Format version : Version 4
File size : 1.13 GiB
Duration : 1 h 24 min
Overall bit rate : 1 926 kb/s

Video
ID : 1
Format : AVC
Format/Info : Advanced Video
Duration : 1 h 24 min
Width : 960 pixels
Height : 540 pixels
Display aspect ratio : 16:9
Frame rate mode : Constant
Frame rate : 23.976 (24000/1001) FPS
Color space : YUV
Chroma subsampling : 4:2:0
Bit depth : 8 bits
Scan type : Progressive
Default : Yes
Forced : No
Color range : Limited
Color primaries : BT.709
Transfer characteristics : BT.709
Matrix coefficients : BT.709

WWEs Most Wanted Treasures

Audio
ID : 2
Format : AAC LC
Format/Info : Advanced Audio
Codec ID : A_AAC-2
Duration : 1 h 24 min
Channel(s) : 2 channels
Channel layout : L R
Sampling rate : 48.0 kHz
Frame rate : 46.875 FPS (1024 SPF)
Compression mode : Lossy
Delay relative to video : -926 ms
Default : Yes
Forced : No

Complete name : WWEs.Most.Wanted.Treasures.S01E08.720p.WEB.h264-BAE.mkv
Format : Matroska
Format version : Version 4
File size : 1.54 GiB
Duration : 1 h 23 min
Overall bit rate : 2 621 kb/s

WWEs Most Wanted Treasures

Video
ID : 1
Format : AVC
Format/Info : Advanced Video
Duration : 1 h 23 min
Bit rate : 2 491 kb/s
Width : 1 280 pixels
Height : 720 pixels
Display aspect ratio : 16:9
Frame rate mode : Constant
Frame rate : 23.976 (24000/1001) FPS
Color space : YUV
Chroma subsampling : 4:2:0
Bit depth : 8 bits
Scan type : Progressive
Bits/(Pixel*Frame) : 0.113
Stream size : 1.46 GiB (95%)
Language : English
Default : Yes
Forced : No
Color range : Limited
Color primaries : BT.709
Transfer characteristics : BT.709
Matrix coefficients : BT.709

WWEs Most Wanted Treasures

Audio
ID : 2
Format : AAC LC
Format/Info : Advanced Audio
Codec ID : A_AAC-2
Duration : 1 h 23 min
Bit rate : 128 kb/s
Channel(s) : 2 channels
Channel layout : L R
Sampling rate : 48.0 kHz
Frame rate : 46.875 FPS (1024 SPF)
Compression mode : Lossy
Stream size : 76.8 MiB (5%)
Language : English
Default : Yes
Forced : No

Text
ID : 3
Format : UTF-8
Codec ID : S_TEXT/UTF8
Codec ID/Info : UTF-8 Plain Text
Duration : 1 h 23 min
Bit rate : 129 b/s
Count of elements : 1850
Stream size : 79.7 KiB (0%)
Language : English
Default : No
Forced : No

WWEs Most Wanted Treasures

 

Complete name : WWEs Most Wanted Treasures S01E08 .mkv
Format : Matroska
Format version : Version 4
File size : 1.13 GiB
Duration : 1 h 24 min
Overall bit rate : 1 926 kb/s

Video
ID : 1
Format : AVC
Format/Info : Advanced Video
Duration : 1 h 24 min
Width : 960 pixels
Height : 540 pixels
Display aspect ratio : 16:9
Frame rate mode : Constant
Frame rate : 23.976 (24000/1001) FPS
Color space : YUV
Chroma subsampling : 4:2:0
Bit depth : 8 bits
Scan type : Progressive
Default : Yes
Forced : No
Color range : Limited
Color primaries : BT.709
Transfer characteristics : BT.709
Matrix coefficients : BT.709

WWEs Most Wanted Treasures

Audio
ID : 2
Format : AAC LC
Format/Info : Advanced Audio
Codec ID : A_AAC-2
Duration : 1 h 24 min
Channel(s) : 2 channels
Channel layout : L R
Sampling rate : 48.0 kHz
Frame rate : 46.875 FPS (1024 SPF)
Compression mode : Lossy
Delay relative to video : -926 ms
Default : Yes
Forced : No

Complete name : WWEs.Most.Wanted.Treasures.S01E08.720p.WEB.h264-BAE.mkv
Format : Matroska
Format version : Version 4
File size : 1.54 GiB
Duration : 1 h 23 min
Overall bit rate : 2 621 kb/s

WWEs Most Wanted Treasures

Video
ID : 1
Format : AVC
Format/Info : Advanced Video
Duration : 1 h 23 min
Bit rate : 2 491 kb/s
Width : 1 280 pixels
Height : 720 pixels
Display aspect ratio : 16:9
Frame rate mode : Constant
Frame rate : 23.976 (24000/1001) FPS
Color space : YUV
Chroma subsampling : 4:2:0
Bit depth : 8 bits
Scan type : Progressive
Bits/(Pixel*Frame) : 0.113
Stream size : 1.46 GiB (95%)
Language : English
Default : Yes
Forced : No
Color range : Limited
Color primaries : BT.709
Transfer characteristics : BT.709
Matrix coefficients : BT.709

WWEs Most Wanted Treasures

Audio
ID : 2
Format : AAC LC
Format/Info : Advanced Audio
Codec ID : A_AAC-2
Duration : 1 h 23 min
Bit rate : 128 kb/s
Channel(s) : 2 channels
Channel layout : L R
Sampling rate : 48.0 kHz
Frame rate : 46.875 FPS (1024 SPF)
Compression mode : Lossy
Stream size : 76.8 MiB (5%)
Language : English
Default : Yes
Forced : No

Text
ID : 3
Format : UTF-8
Codec ID : S_TEXT/UTF8
Codec ID/Info : UTF-8 Plain Text
Duration : 1 h 23 min
Bit rate : 129 b/s
Count of elements : 1850
Stream size : 79.7 KiB (0%)
Language : English
Default : No
Forced : No

WWEs Most Wanted Treasures

 

Complete name : WWEs Most Wanted Treasures S01E08 .mkv
Format : Matroska
Format version : Version 4
File size : 1.13 GiB
Duration : 1 h 24 min
Overall bit rate : 1 926 kb/s

Video
ID : 1
Format : AVC
Format/Info : Advanced Video
Duration : 1 h 24 min
Width : 960 pixels
Height : 540 pixels
Display aspect ratio : 16:9
Frame rate mode : Constant
Frame rate : 23.976 (24000/1001) FPS
Color space : YUV
Chroma subsampling : 4:2:0
Bit depth : 8 bits
Scan type : Progressive
Default : Yes
Forced : No
Color range : Limited
Color primaries : BT.709
Transfer characteristics : BT.709
Matrix coefficients : BT.709

WWEs Most Wanted Treasures

Audio
ID : 2
Format : AAC LC
Format/Info : Advanced Audio
Codec ID : A_AAC-2
Duration : 1 h 24 min
Channel(s) : 2 channels
Channel layout : L R
Sampling rate : 48.0 kHz
Frame rate : 46.875 FPS (1024 SPF)
Compression mode : Lossy
Delay relative to video : -926 ms
Default : Yes
Forced : No

Complete name : WWEs.Most.Wanted.Treasures.S01E08.720p.WEB.h264-BAE.mkv
Format : Matroska
Format version : Version 4
File size : 1.54 GiB
Duration : 1 h 23 min
Overall bit rate : 2 621 kb/s

WWEs Most Wanted Treasures

Video
ID : 1
Format : AVC
Format/Info : Advanced Video
Duration : 1 h 23 min
Bit rate : 2 491 kb/s
Width : 1 280 pixels
Height : 720 pixels
Display aspect ratio : 16:9
Frame rate mode : Constant
Frame rate : 23.976 (24000/1001) FPS
Color space : YUV
Chroma subsampling : 4:2:0
Bit depth : 8 bits
Scan type : Progressive
Bits/(Pixel*Frame) : 0.113
Stream size : 1.46 GiB (95%)
Language : English
Default : Yes
Forced : No
Color range : Limited
Color primaries : BT.709
Transfer characteristics : BT.709
Matrix coefficients : BT.709

WWEs Most Wanted Treasures

Audio
ID : 2
Format : AAC LC
Format/Info : Advanced Audio
Codec ID : A_AAC-2
Duration : 1 h 23 min
Bit rate : 128 kb/s
Channel(s) : 2 channels
Channel layout : L R
Sampling rate : 48.0 kHz
Frame rate : 46.875 FPS (1024 SPF)
Compression mode : Lossy
Stream size : 76.8 MiB (5%)
Language : English
Default : Yes
Forced : No

Text
ID : 3
Format : UTF-8
Codec ID : S_TEXT/UTF8
Codec ID/Info : UTF-8 Plain Text
Duration : 1 h 23 min
Bit rate : 129 b/s
Count of elements : 1850
Stream size : 79.7 KiB (0%)
Language : English
Default : No
Forced : No

WWEs Most Wanted Treasures

 

Complete name : WWEs Most Wanted Treasures S01E08 .mkv
Format : Matroska
Format version : Version 4
File size : 1.13 GiB
Duration : 1 h 24 min
Overall bit rate : 1 926 kb/s

Video
ID : 1
Format : AVC
Format/Info : Advanced Video
Duration : 1 h 24 min
Width : 960 pixels
Height : 540 pixels
Display aspect ratio : 16:9
Frame rate mode : Constant
Frame rate : 23.976 (24000/1001) FPS
Color space : YUV
Chroma subsampling : 4:2:0
Bit depth : 8 bits
Scan type : Progressive
Default : Yes
Forced : No
Color range : Limited
Color primaries : BT.709
Transfer characteristics : BT.709
Matrix coefficients : BT.709

WWEs Most Wanted Treasures

Audio
ID : 2
Format : AAC LC
Format/Info : Advanced Audio
Codec ID : A_AAC-2
Duration : 1 h 24 min
Channel(s) : 2 channels
Channel layout : L R
Sampling rate : 48.0 kHz
Frame rate : 46.875 FPS (1024 SPF)
Compression mode : Lossy
Delay relative to video : -926 ms
Default : Yes
Forced : No

Complete name : WWEs.Most.Wanted.Treasures.S01E08.720p.WEB.h264-BAE.mkv
Format : Matroska
Format version : Version 4
File size : 1.54 GiB
Duration : 1 h 23 min
Overall bit rate : 2 621 kb/s

WWEs Most Wanted Treasures

Video
ID : 1
Format : AVC
Format/Info : Advanced Video
Duration : 1 h 23 min
Bit rate : 2 491 kb/s
Width : 1 280 pixels
Height : 720 pixels
Display aspect ratio : 16:9
Frame rate mode : Constant
Frame rate : 23.976 (24000/1001) FPS
Color space : YUV
Chroma subsampling : 4:2:0
Bit depth : 8 bits
Scan type : Progressive
Bits/(Pixel*Frame) : 0.113
Stream size : 1.46 GiB (95%)
Language : English
Default : Yes
Forced : No
Color range : Limited
Color primaries : BT.709
Transfer characteristics : BT.709
Matrix coefficients : BT.709

WWEs Most Wanted Treasures

Audio
ID : 2
Format : AAC LC
Format/Info : Advanced Audio
Codec ID : A_AAC-2
Duration : 1 h 23 min
Bit rate : 128 kb/s
Channel(s) : 2 channels
Channel layout : L R
Sampling rate : 48.0 kHz
Frame rate : 46.875 FPS (1024 SPF)
Compression mode : Lossy
Stream size : 76.8 MiB (5%)
Language : English
Default : Yes
Forced : No

Text
ID : 3
Format : UTF-8
Codec ID : S_TEXT/UTF8
Codec ID/Info : UTF-8 Plain Text
Duration : 1 h 23 min
Bit rate : 129 b/s
Count of elements : 1850
Stream size : 79.7 KiB (0%)
Language : English
Default : No
Forced : No

WWEs Most Wanted Treasures

 

Complete name : WWEs Most Wanted Treasures S01E08 .mkv
Format : Matroska
Format version : Version 4
File size : 1.13 GiB
Duration : 1 h 24 min
Overall bit rate : 1 926 kb/s

Video
ID : 1
Format : AVC
Format/Info : Advanced Video
Duration : 1 h 24 min
Width : 960 pixels
Height : 540 pixels
Display aspect ratio : 16:9
Frame rate mode : Constant
Frame rate : 23.976 (24000/1001) FPS
Color space : YUV
Chroma subsampling : 4:2:0
Bit depth : 8 bits
Scan type : Progressive
Default : Yes
Forced : No
Color range : Limited
Color primaries : BT.709
Transfer characteristics : BT.709
Matrix coefficients : BT.709

WWEs Most Wanted Treasures

Audio
ID : 2
Format : AAC LC
Format/Info : Advanced Audio
Codec ID : A_AAC-2
Duration : 1 h 24 min
Channel(s) : 2 channels
Channel layout : L R
Sampling rate : 48.0 kHz
Frame rate : 46.875 FPS (1024 SPF)
Compression mode : Lossy
Delay relative to video : -926 ms
Default : Yes
Forced : No

Complete name : WWEs.Most.Wanted.Treasures.S01E08.720p.WEB.h264-BAE.mkv
Format : Matroska
Format version : Version 4
File size : 1.54 GiB
Duration : 1 h 23 min
Overall bit rate : 2 621 kb/s

WWEs Most Wanted Treasures

Video
ID : 1
Format : AVC
Format/Info : Advanced Video
Duration : 1 h 23 min
Bit rate : 2 491 kb/s
Width : 1 280 pixels
Height : 720 pixels
Display aspect ratio : 16:9
Frame rate mode : Constant
Frame rate : 23.976 (24000/1001) FPS
Color space : YUV
Chroma subsampling : 4:2:0
Bit depth : 8 bits
Scan type : Progressive
Bits/(Pixel*Frame) : 0.113
Stream size : 1.46 GiB (95%)
Language : English
Default : Yes
Forced : No
Color range : Limited
Color primaries : BT.709
Transfer characteristics : BT.709
Matrix coefficients : BT.709

WWEs Most Wanted Treasures

Audio
ID : 2
Format : AAC LC
Format/Info : Advanced Audio
Codec ID : A_AAC-2
Duration : 1 h 23 min
Bit rate : 128 kb/s
Channel(s) : 2 channels
Channel layout : L R
Sampling rate : 48.0 kHz
Frame rate : 46.875 FPS (1024 SPF)
Compression mode : Lossy
Stream size : 76.8 MiB (5%)
Language : English
Default : Yes
Forced : No

Text
ID : 3
Format : UTF-8
Codec ID : S_TEXT/UTF8
Codec ID/Info : UTF-8 Plain Text
Duration : 1 h 23 min
Bit rate : 129 b/s
Count of elements : 1850
Stream size : 79.7 KiB (0%)
Language : English
Default : No
Forced : No

WWEs Most Wanted Treasures

 

Complete name : WWEs Most Wanted Treasures S01E08 .mkv
Format : Matroska
Format version : Version 4
File size : 1.13 GiB
Duration : 1 h 24 min
Overall bit rate : 1 926 kb/s

Video
ID : 1
Format : AVC
Format/Info : Advanced Video
Duration : 1 h 24 min
Width : 960 pixels
Height : 540 pixels
Display aspect ratio : 16:9
Frame rate mode : Constant
Frame rate : 23.976 (24000/1001) FPS
Color space : YUV
Chroma subsampling : 4:2:0
Bit depth : 8 bits
Scan type : Progressive
Default : Yes
Forced : No
Color range : Limited
Color primaries : BT.709
Transfer characteristics : BT.709
Matrix coefficients : BT.709

WWEs Most Wanted Treasures

Audio
ID : 2
Format : AAC LC
Format/Info : Advanced Audio
Codec ID : A_AAC-2
Duration : 1 h 24 min
Channel(s) : 2 channels
Channel layout : L R
Sampling rate : 48.0 kHz
Frame rate : 46.875 FPS (1024 SPF)
Compression mode : Lossy
Delay relative to video : -926 ms
Default : Yes
Forced : No

Complete name : WWEs.Most.Wanted.Treasures.S01E08.720p.WEB.h264-BAE.mkv
Format : Matroska
Format version : Version 4
File size : 1.54 GiB
Duration : 1 h 23 min
Overall bit rate : 2 621 kb/s

WWEs Most Wanted Treasures

Video
ID : 1
Format : AVC
Format/Info : Advanced Video
Duration : 1 h 23 min
Bit rate : 2 491 kb/s
Width : 1 280 pixels
Height : 720 pixels
Display aspect ratio : 16:9
Frame rate mode : Constant
Frame rate : 23.976 (24000/1001) FPS
Color space : YUV
Chroma subsampling : 4:2:0
Bit depth : 8 bits
Scan type : Progressive
Bits/(Pixel*Frame) : 0.113
Stream size : 1.46 GiB (95%)
Language : English
Default : Yes
Forced : No
Color range : Limited
Color primaries : BT.709
Transfer characteristics : BT.709
Matrix coefficients : BT.709

WWEs Most Wanted Treasures

Audio
ID : 2
Format : AAC LC
Format/Info : Advanced Audio
Codec ID : A_AAC-2
Duration : 1 h 23 min
Bit rate : 128 kb/s
Channel(s) : 2 channels
Channel layout : L R
Sampling rate : 48.0 kHz
Frame rate : 46.875 FPS (1024 SPF)
Compression mode : Lossy
Stream size : 76.8 MiB (5%)
Language : English
Default : Yes
Forced : No

Text
ID : 3
Format : UTF-8
Codec ID : S_TEXT/UTF8
Codec ID/Info : UTF-8 Plain Text
Duration : 1 h 23 min
Bit rate : 129 b/s
Count of elements : 1850
Stream size : 79.7 KiB (0%)
Language : English
Default : No
Forced : No

WWEs Most Wanted Treasures

 

 

 

 

[collapse]

 

 

https://dx-tv.com/

Leave a Reply

Your email address will not be published. Required fields are marked *

This site uses Akismet to reduce spam. Learn how your comment data is processed.

Previous Post
NOAH wrestling

NOAH Mitsuharu Misawa Memorial 2021 Online Free

Next Post
dragon Gate

Dragon Gate Rainbow Gate Day 4 Online Free