NOAH Cross Over 2021 in Sendai 2021 English Online Free

NOAH Cross Over 2021 in Sendai 2021 07 11 English 720p/ 1080p Online Free Replay DX-TV

NOAH Cross Over 2021

 NOAH Cross Over 2021

 

 

 

Download Links with High Speed


 

Dopapk

 

 

Show Links

 

http://shrt10.com/8R7tQq
http://shrt10.com/JkBmF3jV
http://shrt10.com/Il2XS

 

[collapse]

 

 

Nitroflare

 

 

Show Links

 

http://shrt10.com/Fieoyqw
http://shrt10.com/eYYf6
http://shrt10.com/Z1ZMUp

 

[collapse]

 

 

Rapidgator

 

 

Show Links

 

http://shrt10.com/yMcQPFDEu
http://shrt10.com/HTwdxQz
http://shrt10.com/3wqdIhD5

 

[collapse]

 

 

Uploaded

 

 

Show Links

 

http://shrt10.com/H3i0o
http://shrt10.com/YM6FOdJTm

 

[collapse]

 

 

Watch online

 

Server 1

 

 

 

 

NOAH Cross Over 2021

 

 

 

 

Server-2

 

 

 

 

watch now

 

 

 

|Server-3

 

 

 

 

watch now

 

 

Uploaded By Site DX-TV.com

 

 

Show Info This Show

 

NOAH Cross Over 2021

Complete name : NOAH.2021.07.11.Cross.Over.2021.in.Sendai.ENGLISH.1080p.WEB.h264-LATE.mkv
Format : Matroska
Format version : Version 4
File size : 8.15 GiB
Duration : 3 h 14 min
Overall bit rate mode : Variable
Overall bit rate : 6 005 kb/s

Video
ID : 1
Format : AVC
Format/Info : Advanced Video
Duration : 3 h 14 min
Bit rate mode : Variable
Bit rate : 5 621 kb/s
Maximum bit rate : 18.0 Mb/s
Width : 1 920 pixels
Height : 1 080 pixels
Display aspect ratio : 16:9
Frame rate mode : Constant
Frame rate : 29.970 (30000/1001) FPS
Color space : YUV
Chroma subsampling : 4:2:0
Bit depth : 8 bits
Scan type : Progressive
Bits/(Pixel*Frame) : 0.090
Stream size : 7.63 GiB (94%)
Default : Yes
Forced : No
Color range : Limited
Color primaries : BT.709
Transfer characteristics : BT.709
Matrix coefficients : BT.709

NOAH Cross Over 2021

Audio
ID : 2
Format : AAC LC
Format/Info : Advanced Audio
Codec ID : A_AAC-2
Duration : 3 h 14 min
Bit rate : 384 kb/s
Channel(s) : 2 channels
Channel layout : L R
Sampling rate : 48.0 kHz
Frame rate : 46.875 FPS
Compression mode : Lossy
Delay relative to video : 3 ms
Stream size : 530 MiB (6%)
Default : Yes
Forced : No

Complete name : NOAH.2021.07.11.Cross.Over.2021.in.Sendai.ENGLISH.720p.WEB.h264-LATE.mkv
Format : Matroska
Format version : Version 4
File size : 3.62 GiB
Duration : 3 h 14 min
Overall bit rate mode : Variable
Overall bit rate : 2 666 kb/s

NOAH Cross Over 2021

Video
ID : 1
Format : AVC
Format/Info : Advanced Video
Duration : 3 h 14 min
Bit rate mode : Variable
Bit rate : 2 474 kb/s
Maximum bit rate : 8 000 kb/s
Width : 1 280 pixels
Height : 720 pixels
Display aspect ratio : 16:9
Frame rate mode : Constant
Frame rate : 29.970 (30000/1001) FPS
Color space : YUV
Chroma subsampling : 4:2:0
Bit depth : 8 bits
Scan type : Progressive
Bits/(Pixel*Frame) : 0.090
Stream size : 3.36 GiB (93%)
Default : Yes
Forced : No
Color range : Limited
Color primaries : BT.709
Transfer characteristics : BT.709
Matrix coefficients : BT.709

NOAH Cross Over 2021

Audio
ID : 2
Format : AAC LC
Codec ID : A_AAC-2
Duration : 3 h 14 min
Bit rate : 192 kb/s
Channel(s) : 2 channels
Channel layout : L R
Sampling rate : 48.0 kHz
Frame rate : 46.875 FPS (1024 SPF)
Compression mode : Lossy
Delay relative to video : 3 ms
Stream size : 263 MiB (7%)
Default : Yes
Forced : No

Complete name : NOAH.2021.07.11.Cross.Over.2021.in.Sendai.ENGLISH.WEB.h264-LATE.mkv
Format : Matroska
Format version : Version 4
File size : 1.77 GiB
Duration : 3 h 14 min
Overall bit rate mode : Variable
Overall bit rate : 1 305 kb/s

NOAH Cross Over 2021

Video
ID : 1
Format : AVC
Format/Info : Advanced Video
Duration : 3 h 14 min
Bit rate mode : Variable
Bit rate : 1 177 kb/s
Maximum bit rate : 4 000 kb/s
Width : 960 pixels
Height : 540 pixels
Display aspect ratio : 16:9
Frame rate mode : Constant
Frame rate : 29.970 (30000/1001) FPS
Color space : YUV
Chroma subsampling : 4:2:0
Bit depth : 8 bits
Scan type : Progressive
Bits/(Pixel*Frame) : 0.076
Stream size : 1.60 GiB (90%)
Default : Yes
Forced : No
Color range : Limited
Color primaries : BT.709
Transfer characteristics : BT.709
Matrix coefficients : BT.709

Audio
ID : 2
Format : AAC LC
Format/Info : Advanced Audio
Codec ID : A_AAC-2
Duration : 3 h 14 min
Bit rate : 125 kb/s
Channel(s) : 2 channels
Channel layout : L R
Sampling rate : 48.0 kHz
Frame rate : 46.875 FPS (1024 SPF)
Compression mode : Lossy
Delay relative to video : 3 ms
Stream size : 174 MiB (10%)
Default : Yes
Forced : No

NOAH Cross Over 2021

Complete name : NOAH.2021.07.11.Cross.Over.2021.in.Sendai.ENGLISH.1080p.WEB.h264-LATE.mkv
Format : Matroska
Format version : Version 4
File size : 8.15 GiB
Duration : 3 h 14 min
Overall bit rate mode : Variable
Overall bit rate : 6 005 kb/s

Video
ID : 1
Format : AVC
Format/Info : Advanced Video
Duration : 3 h 14 min
Bit rate mode : Variable
Bit rate : 5 621 kb/s
Maximum bit rate : 18.0 Mb/s
Width : 1 920 pixels
Height : 1 080 pixels
Display aspect ratio : 16:9
Frame rate mode : Constant
Frame rate : 29.970 (30000/1001) FPS
Color space : YUV
Chroma subsampling : 4:2:0
Bit depth : 8 bits
Scan type : Progressive
Bits/(Pixel*Frame) : 0.090
Stream size : 7.63 GiB (94%)
Default : Yes
Forced : No
Color range : Limited
Color primaries : BT.709
Transfer characteristics : BT.709
Matrix coefficients : BT.709

NOAH Cross Over 2021

Audio
ID : 2
Format : AAC LC
Format/Info : Advanced Audio
Codec ID : A_AAC-2
Duration : 3 h 14 min
Bit rate : 384 kb/s
Channel(s) : 2 channels
Channel layout : L R
Sampling rate : 48.0 kHz
Frame rate : 46.875 FPS
Compression mode : Lossy
Delay relative to video : 3 ms
Stream size : 530 MiB (6%)
Default : Yes
Forced : No

Complete name : NOAH.2021.07.11.Cross.Over.2021.in.Sendai.ENGLISH.720p.WEB.h264-LATE.mkv
Format : Matroska
Format version : Version 4
File size : 3.62 GiB
Duration : 3 h 14 min
Overall bit rate mode : Variable
Overall bit rate : 2 666 kb/s

NOAH Cross Over 2021

Video
ID : 1
Format : AVC
Format/Info : Advanced Video
Duration : 3 h 14 min
Bit rate mode : Variable
Bit rate : 2 474 kb/s
Maximum bit rate : 8 000 kb/s
Width : 1 280 pixels
Height : 720 pixels
Display aspect ratio : 16:9
Frame rate mode : Constant
Frame rate : 29.970 (30000/1001) FPS
Color space : YUV
Chroma subsampling : 4:2:0
Bit depth : 8 bits
Scan type : Progressive
Bits/(Pixel*Frame) : 0.090
Stream size : 3.36 GiB (93%)
Default : Yes
Forced : No
Color range : Limited
Color primaries : BT.709
Transfer characteristics : BT.709
Matrix coefficients : BT.709

NOAH Cross Over 2021

Audio
ID : 2
Format : AAC LC
Codec ID : A_AAC-2
Duration : 3 h 14 min
Bit rate : 192 kb/s
Channel(s) : 2 channels
Channel layout : L R
Sampling rate : 48.0 kHz
Frame rate : 46.875 FPS (1024 SPF)
Compression mode : Lossy
Delay relative to video : 3 ms
Stream size : 263 MiB (7%)
Default : Yes
Forced : No

Complete name : NOAH.2021.07.11.Cross.Over.2021.in.Sendai.ENGLISH.WEB.h264-LATE.mkv
Format : Matroska
Format version : Version 4
File size : 1.77 GiB
Duration : 3 h 14 min
Overall bit rate mode : Variable
Overall bit rate : 1 305 kb/s

NOAH Cross Over 2021

Video
ID : 1
Format : AVC
Format/Info : Advanced Video
Duration : 3 h 14 min
Bit rate mode : Variable
Bit rate : 1 177 kb/s
Maximum bit rate : 4 000 kb/s
Width : 960 pixels
Height : 540 pixels
Display aspect ratio : 16:9
Frame rate mode : Constant
Frame rate : 29.970 (30000/1001) FPS
Color space : YUV
Chroma subsampling : 4:2:0
Bit depth : 8 bits
Scan type : Progressive
Bits/(Pixel*Frame) : 0.076
Stream size : 1.60 GiB (90%)
Default : Yes
Forced : No
Color range : Limited
Color primaries : BT.709
Transfer characteristics : BT.709
Matrix coefficients : BT.709

Audio
ID : 2
Format : AAC LC
Format/Info : Advanced Audio
Codec ID : A_AAC-2
Duration : 3 h 14 min
Bit rate : 125 kb/s
Channel(s) : 2 channels
Channel layout : L R
Sampling rate : 48.0 kHz
Frame rate : 46.875 FPS (1024 SPF)
Compression mode : Lossy
Delay relative to video : 3 ms
Stream size : 174 MiB (10%)
Default : Yes
Forced : No

NOAH Cross Over 2021

Complete name : NOAH.2021.07.11.Cross.Over.2021.in.Sendai.ENGLISH.1080p.WEB.h264-LATE.mkv
Format : Matroska
Format version : Version 4
File size : 8.15 GiB
Duration : 3 h 14 min
Overall bit rate mode : Variable
Overall bit rate : 6 005 kb/s

Video
ID : 1
Format : AVC
Format/Info : Advanced Video
Duration : 3 h 14 min
Bit rate mode : Variable
Bit rate : 5 621 kb/s
Maximum bit rate : 18.0 Mb/s
Width : 1 920 pixels
Height : 1 080 pixels
Display aspect ratio : 16:9
Frame rate mode : Constant
Frame rate : 29.970 (30000/1001) FPS
Color space : YUV
Chroma subsampling : 4:2:0
Bit depth : 8 bits
Scan type : Progressive
Bits/(Pixel*Frame) : 0.090
Stream size : 7.63 GiB (94%)
Default : Yes
Forced : No
Color range : Limited
Color primaries : BT.709
Transfer characteristics : BT.709
Matrix coefficients : BT.709

NOAH Cross Over 2021

Audio
ID : 2
Format : AAC LC
Format/Info : Advanced Audio
Codec ID : A_AAC-2
Duration : 3 h 14 min
Bit rate : 384 kb/s
Channel(s) : 2 channels
Channel layout : L R
Sampling rate : 48.0 kHz
Frame rate : 46.875 FPS
Compression mode : Lossy
Delay relative to video : 3 ms
Stream size : 530 MiB (6%)
Default : Yes
Forced : No

Complete name : NOAH.2021.07.11.Cross.Over.2021.in.Sendai.ENGLISH.720p.WEB.h264-LATE.mkv
Format : Matroska
Format version : Version 4
File size : 3.62 GiB
Duration : 3 h 14 min
Overall bit rate mode : Variable
Overall bit rate : 2 666 kb/s

NOAH Cross Over 2021

Video
ID : 1
Format : AVC
Format/Info : Advanced Video
Duration : 3 h 14 min
Bit rate mode : Variable
Bit rate : 2 474 kb/s
Maximum bit rate : 8 000 kb/s
Width : 1 280 pixels
Height : 720 pixels
Display aspect ratio : 16:9
Frame rate mode : Constant
Frame rate : 29.970 (30000/1001) FPS
Color space : YUV
Chroma subsampling : 4:2:0
Bit depth : 8 bits
Scan type : Progressive
Bits/(Pixel*Frame) : 0.090
Stream size : 3.36 GiB (93%)
Default : Yes
Forced : No
Color range : Limited
Color primaries : BT.709
Transfer characteristics : BT.709
Matrix coefficients : BT.709

NOAH Cross Over 2021

Audio
ID : 2
Format : AAC LC
Codec ID : A_AAC-2
Duration : 3 h 14 min
Bit rate : 192 kb/s
Channel(s) : 2 channels
Channel layout : L R
Sampling rate : 48.0 kHz
Frame rate : 46.875 FPS (1024 SPF)
Compression mode : Lossy
Delay relative to video : 3 ms
Stream size : 263 MiB (7%)
Default : Yes
Forced : No

Complete name : NOAH.2021.07.11.Cross.Over.2021.in.Sendai.ENGLISH.WEB.h264-LATE.mkv
Format : Matroska
Format version : Version 4
File size : 1.77 GiB
Duration : 3 h 14 min
Overall bit rate mode : Variable
Overall bit rate : 1 305 kb/s

NOAH Cross Over 2021

Video
ID : 1
Format : AVC
Format/Info : Advanced Video
Duration : 3 h 14 min
Bit rate mode : Variable
Bit rate : 1 177 kb/s
Maximum bit rate : 4 000 kb/s
Width : 960 pixels
Height : 540 pixels
Display aspect ratio : 16:9
Frame rate mode : Constant
Frame rate : 29.970 (30000/1001) FPS
Color space : YUV
Chroma subsampling : 4:2:0
Bit depth : 8 bits
Scan type : Progressive
Bits/(Pixel*Frame) : 0.076
Stream size : 1.60 GiB (90%)
Default : Yes
Forced : No
Color range : Limited
Color primaries : BT.709
Transfer characteristics : BT.709
Matrix coefficients : BT.709

Audio
ID : 2
Format : AAC LC
Format/Info : Advanced Audio
Codec ID : A_AAC-2
Duration : 3 h 14 min
Bit rate : 125 kb/s
Channel(s) : 2 channels
Channel layout : L R
Sampling rate : 48.0 kHz
Frame rate : 46.875 FPS (1024 SPF)
Compression mode : Lossy
Delay relative to video : 3 ms
Stream size : 174 MiB (10%)
Default : Yes
Forced : No

NOAH Cross Over 2021

Complete name : NOAH.2021.07.11.Cross.Over.2021.in.Sendai.ENGLISH.1080p.WEB.h264-LATE.mkv
Format : Matroska
Format version : Version 4
File size : 8.15 GiB
Duration : 3 h 14 min
Overall bit rate mode : Variable
Overall bit rate : 6 005 kb/s

Video
ID : 1
Format : AVC
Format/Info : Advanced Video
Duration : 3 h 14 min
Bit rate mode : Variable
Bit rate : 5 621 kb/s
Maximum bit rate : 18.0 Mb/s
Width : 1 920 pixels
Height : 1 080 pixels
Display aspect ratio : 16:9
Frame rate mode : Constant
Frame rate : 29.970 (30000/1001) FPS
Color space : YUV
Chroma subsampling : 4:2:0
Bit depth : 8 bits
Scan type : Progressive
Bits/(Pixel*Frame) : 0.090
Stream size : 7.63 GiB (94%)
Default : Yes
Forced : No
Color range : Limited
Color primaries : BT.709
Transfer characteristics : BT.709
Matrix coefficients : BT.709

NOAH Cross Over 2021

Audio
ID : 2
Format : AAC LC
Format/Info : Advanced Audio
Codec ID : A_AAC-2
Duration : 3 h 14 min
Bit rate : 384 kb/s
Channel(s) : 2 channels
Channel layout : L R
Sampling rate : 48.0 kHz
Frame rate : 46.875 FPS
Compression mode : Lossy
Delay relative to video : 3 ms
Stream size : 530 MiB (6%)
Default : Yes
Forced : No

Complete name : NOAH.2021.07.11.Cross.Over.2021.in.Sendai.ENGLISH.720p.WEB.h264-LATE.mkv
Format : Matroska
Format version : Version 4
File size : 3.62 GiB
Duration : 3 h 14 min
Overall bit rate mode : Variable
Overall bit rate : 2 666 kb/s

NOAH Cross Over 2021

Video
ID : 1
Format : AVC
Format/Info : Advanced Video
Duration : 3 h 14 min
Bit rate mode : Variable
Bit rate : 2 474 kb/s
Maximum bit rate : 8 000 kb/s
Width : 1 280 pixels
Height : 720 pixels
Display aspect ratio : 16:9
Frame rate mode : Constant
Frame rate : 29.970 (30000/1001) FPS
Color space : YUV
Chroma subsampling : 4:2:0
Bit depth : 8 bits
Scan type : Progressive
Bits/(Pixel*Frame) : 0.090
Stream size : 3.36 GiB (93%)
Default : Yes
Forced : No
Color range : Limited
Color primaries : BT.709
Transfer characteristics : BT.709
Matrix coefficients : BT.709

NOAH Cross Over 2021

Audio
ID : 2
Format : AAC LC
Codec ID : A_AAC-2
Duration : 3 h 14 min
Bit rate : 192 kb/s
Channel(s) : 2 channels
Channel layout : L R
Sampling rate : 48.0 kHz
Frame rate : 46.875 FPS (1024 SPF)
Compression mode : Lossy
Delay relative to video : 3 ms
Stream size : 263 MiB (7%)
Default : Yes
Forced : No

Complete name : NOAH.2021.07.11.Cross.Over.2021.in.Sendai.ENGLISH.WEB.h264-LATE.mkv
Format : Matroska
Format version : Version 4
File size : 1.77 GiB
Duration : 3 h 14 min
Overall bit rate mode : Variable
Overall bit rate : 1 305 kb/s

NOAH Cross Over 2021

Video
ID : 1
Format : AVC
Format/Info : Advanced Video
Duration : 3 h 14 min
Bit rate mode : Variable
Bit rate : 1 177 kb/s
Maximum bit rate : 4 000 kb/s
Width : 960 pixels
Height : 540 pixels
Display aspect ratio : 16:9
Frame rate mode : Constant
Frame rate : 29.970 (30000/1001) FPS
Color space : YUV
Chroma subsampling : 4:2:0
Bit depth : 8 bits
Scan type : Progressive
Bits/(Pixel*Frame) : 0.076
Stream size : 1.60 GiB (90%)
Default : Yes
Forced : No
Color range : Limited
Color primaries : BT.709
Transfer characteristics : BT.709
Matrix coefficients : BT.709

Audio
ID : 2
Format : AAC LC
Format/Info : Advanced Audio
Codec ID : A_AAC-2
Duration : 3 h 14 min
Bit rate : 125 kb/s
Channel(s) : 2 channels
Channel layout : L R
Sampling rate : 48.0 kHz
Frame rate : 46.875 FPS (1024 SPF)
Compression mode : Lossy
Delay relative to video : 3 ms
Stream size : 174 MiB (10%)
Default : Yes
Forced : No

NOAH Cross Over 2021

Complete name : NOAH.2021.07.11.Cross.Over.2021.in.Sendai.ENGLISH.1080p.WEB.h264-LATE.mkv
Format : Matroska
Format version : Version 4
File size : 8.15 GiB
Duration : 3 h 14 min
Overall bit rate mode : Variable
Overall bit rate : 6 005 kb/s

Video
ID : 1
Format : AVC
Format/Info : Advanced Video
Duration : 3 h 14 min
Bit rate mode : Variable
Bit rate : 5 621 kb/s
Maximum bit rate : 18.0 Mb/s
Width : 1 920 pixels
Height : 1 080 pixels
Display aspect ratio : 16:9
Frame rate mode : Constant
Frame rate : 29.970 (30000/1001) FPS
Color space : YUV
Chroma subsampling : 4:2:0
Bit depth : 8 bits
Scan type : Progressive
Bits/(Pixel*Frame) : 0.090
Stream size : 7.63 GiB (94%)
Default : Yes
Forced : No
Color range : Limited
Color primaries : BT.709
Transfer characteristics : BT.709
Matrix coefficients : BT.709

NOAH Cross Over 2021

Audio
ID : 2
Format : AAC LC
Format/Info : Advanced Audio
Codec ID : A_AAC-2
Duration : 3 h 14 min
Bit rate : 384 kb/s
Channel(s) : 2 channels
Channel layout : L R
Sampling rate : 48.0 kHz
Frame rate : 46.875 FPS
Compression mode : Lossy
Delay relative to video : 3 ms
Stream size : 530 MiB (6%)
Default : Yes
Forced : No

Complete name : NOAH.2021.07.11.Cross.Over.2021.in.Sendai.ENGLISH.720p.WEB.h264-LATE.mkv
Format : Matroska
Format version : Version 4
File size : 3.62 GiB
Duration : 3 h 14 min
Overall bit rate mode : Variable
Overall bit rate : 2 666 kb/s

NOAH Cross Over 2021

Video
ID : 1
Format : AVC
Format/Info : Advanced Video
Duration : 3 h 14 min
Bit rate mode : Variable
Bit rate : 2 474 kb/s
Maximum bit rate : 8 000 kb/s
Width : 1 280 pixels
Height : 720 pixels
Display aspect ratio : 16:9
Frame rate mode : Constant
Frame rate : 29.970 (30000/1001) FPS
Color space : YUV
Chroma subsampling : 4:2:0
Bit depth : 8 bits
Scan type : Progressive
Bits/(Pixel*Frame) : 0.090
Stream size : 3.36 GiB (93%)
Default : Yes
Forced : No
Color range : Limited
Color primaries : BT.709
Transfer characteristics : BT.709
Matrix coefficients : BT.709

NOAH Cross Over 2021

Audio
ID : 2
Format : AAC LC
Codec ID : A_AAC-2
Duration : 3 h 14 min
Bit rate : 192 kb/s
Channel(s) : 2 channels
Channel layout : L R
Sampling rate : 48.0 kHz
Frame rate : 46.875 FPS (1024 SPF)
Compression mode : Lossy
Delay relative to video : 3 ms
Stream size : 263 MiB (7%)
Default : Yes
Forced : No

Complete name : NOAH.2021.07.11.Cross.Over.2021.in.Sendai.ENGLISH.WEB.h264-LATE.mkv
Format : Matroska
Format version : Version 4
File size : 1.77 GiB
Duration : 3 h 14 min
Overall bit rate mode : Variable
Overall bit rate : 1 305 kb/s

NOAH Cross Over 2021

Video
ID : 1
Format : AVC
Format/Info : Advanced Video
Duration : 3 h 14 min
Bit rate mode : Variable
Bit rate : 1 177 kb/s
Maximum bit rate : 4 000 kb/s
Width : 960 pixels
Height : 540 pixels
Display aspect ratio : 16:9
Frame rate mode : Constant
Frame rate : 29.970 (30000/1001) FPS
Color space : YUV
Chroma subsampling : 4:2:0
Bit depth : 8 bits
Scan type : Progressive
Bits/(Pixel*Frame) : 0.076
Stream size : 1.60 GiB (90%)
Default : Yes
Forced : No
Color range : Limited
Color primaries : BT.709
Transfer characteristics : BT.709
Matrix coefficients : BT.709

Audio
ID : 2
Format : AAC LC
Format/Info : Advanced Audio
Codec ID : A_AAC-2
Duration : 3 h 14 min
Bit rate : 125 kb/s
Channel(s) : 2 channels
Channel layout : L R
Sampling rate : 48.0 kHz
Frame rate : 46.875 FPS (1024 SPF)
Compression mode : Lossy
Delay relative to video : 3 ms
Stream size : 174 MiB (10%)
Default : Yes
Forced : No

NOAH Cross Over 2021

Complete name : NOAH.2021.07.11.Cross.Over.2021.in.Sendai.ENGLISH.1080p.WEB.h264-LATE.mkv
Format : Matroska
Format version : Version 4
File size : 8.15 GiB
Duration : 3 h 14 min
Overall bit rate mode : Variable
Overall bit rate : 6 005 kb/s

Video
ID : 1
Format : AVC
Format/Info : Advanced Video
Duration : 3 h 14 min
Bit rate mode : Variable
Bit rate : 5 621 kb/s
Maximum bit rate : 18.0 Mb/s
Width : 1 920 pixels
Height : 1 080 pixels
Display aspect ratio : 16:9
Frame rate mode : Constant
Frame rate : 29.970 (30000/1001) FPS
Color space : YUV
Chroma subsampling : 4:2:0
Bit depth : 8 bits
Scan type : Progressive
Bits/(Pixel*Frame) : 0.090
Stream size : 7.63 GiB (94%)
Default : Yes
Forced : No
Color range : Limited
Color primaries : BT.709
Transfer characteristics : BT.709
Matrix coefficients : BT.709

NOAH Cross Over 2021

Audio
ID : 2
Format : AAC LC
Format/Info : Advanced Audio
Codec ID : A_AAC-2
Duration : 3 h 14 min
Bit rate : 384 kb/s
Channel(s) : 2 channels
Channel layout : L R
Sampling rate : 48.0 kHz
Frame rate : 46.875 FPS
Compression mode : Lossy
Delay relative to video : 3 ms
Stream size : 530 MiB (6%)
Default : Yes
Forced : No

Complete name : NOAH.2021.07.11.Cross.Over.2021.in.Sendai.ENGLISH.720p.WEB.h264-LATE.mkv
Format : Matroska
Format version : Version 4
File size : 3.62 GiB
Duration : 3 h 14 min
Overall bit rate mode : Variable
Overall bit rate : 2 666 kb/s

NOAH Cross Over 2021

Video
ID : 1
Format : AVC
Format/Info : Advanced Video
Duration : 3 h 14 min
Bit rate mode : Variable
Bit rate : 2 474 kb/s
Maximum bit rate : 8 000 kb/s
Width : 1 280 pixels
Height : 720 pixels
Display aspect ratio : 16:9
Frame rate mode : Constant
Frame rate : 29.970 (30000/1001) FPS
Color space : YUV
Chroma subsampling : 4:2:0
Bit depth : 8 bits
Scan type : Progressive
Bits/(Pixel*Frame) : 0.090
Stream size : 3.36 GiB (93%)
Default : Yes
Forced : No
Color range : Limited
Color primaries : BT.709
Transfer characteristics : BT.709
Matrix coefficients : BT.709

NOAH Cross Over 2021

Audio
ID : 2
Format : AAC LC
Codec ID : A_AAC-2
Duration : 3 h 14 min
Bit rate : 192 kb/s
Channel(s) : 2 channels
Channel layout : L R
Sampling rate : 48.0 kHz
Frame rate : 46.875 FPS (1024 SPF)
Compression mode : Lossy
Delay relative to video : 3 ms
Stream size : 263 MiB (7%)
Default : Yes
Forced : No

Complete name : NOAH.2021.07.11.Cross.Over.2021.in.Sendai.ENGLISH.WEB.h264-LATE.mkv
Format : Matroska
Format version : Version 4
File size : 1.77 GiB
Duration : 3 h 14 min
Overall bit rate mode : Variable
Overall bit rate : 1 305 kb/s

NOAH Cross Over 2021

Video
ID : 1
Format : AVC
Format/Info : Advanced Video
Duration : 3 h 14 min
Bit rate mode : Variable
Bit rate : 1 177 kb/s
Maximum bit rate : 4 000 kb/s
Width : 960 pixels
Height : 540 pixels
Display aspect ratio : 16:9
Frame rate mode : Constant
Frame rate : 29.970 (30000/1001) FPS
Color space : YUV
Chroma subsampling : 4:2:0
Bit depth : 8 bits
Scan type : Progressive
Bits/(Pixel*Frame) : 0.076
Stream size : 1.60 GiB (90%)
Default : Yes
Forced : No
Color range : Limited
Color primaries : BT.709
Transfer characteristics : BT.709
Matrix coefficients : BT.709

Audio
ID : 2
Format : AAC LC
Format/Info : Advanced Audio
Codec ID : A_AAC-2
Duration : 3 h 14 min
Bit rate : 125 kb/s
Channel(s) : 2 channels
Channel layout : L R
Sampling rate : 48.0 kHz
Frame rate : 46.875 FPS (1024 SPF)
Compression mode : Lossy
Delay relative to video : 3 ms
Stream size : 174 MiB (10%)
Default : Yes
Forced : No

NOAH Cross Over 2021

Complete name : NOAH.2021.07.11.Cross.Over.2021.in.Sendai.ENGLISH.1080p.WEB.h264-LATE.mkv
Format : Matroska
Format version : Version 4
File size : 8.15 GiB
Duration : 3 h 14 min
Overall bit rate mode : Variable
Overall bit rate : 6 005 kb/s

Video
ID : 1
Format : AVC
Format/Info : Advanced Video
Duration : 3 h 14 min
Bit rate mode : Variable
Bit rate : 5 621 kb/s
Maximum bit rate : 18.0 Mb/s
Width : 1 920 pixels
Height : 1 080 pixels
Display aspect ratio : 16:9
Frame rate mode : Constant
Frame rate : 29.970 (30000/1001) FPS
Color space : YUV
Chroma subsampling : 4:2:0
Bit depth : 8 bits
Scan type : Progressive
Bits/(Pixel*Frame) : 0.090
Stream size : 7.63 GiB (94%)
Default : Yes
Forced : No
Color range : Limited
Color primaries : BT.709
Transfer characteristics : BT.709
Matrix coefficients : BT.709

NOAH Cross Over 2021

Audio
ID : 2
Format : AAC LC
Format/Info : Advanced Audio
Codec ID : A_AAC-2
Duration : 3 h 14 min
Bit rate : 384 kb/s
Channel(s) : 2 channels
Channel layout : L R
Sampling rate : 48.0 kHz
Frame rate : 46.875 FPS
Compression mode : Lossy
Delay relative to video : 3 ms
Stream size : 530 MiB (6%)
Default : Yes
Forced : No

Complete name : NOAH.2021.07.11.Cross.Over.2021.in.Sendai.ENGLISH.720p.WEB.h264-LATE.mkv
Format : Matroska
Format version : Version 4
File size : 3.62 GiB
Duration : 3 h 14 min
Overall bit rate mode : Variable
Overall bit rate : 2 666 kb/s

NOAH Cross Over 2021

Video
ID : 1
Format : AVC
Format/Info : Advanced Video
Duration : 3 h 14 min
Bit rate mode : Variable
Bit rate : 2 474 kb/s
Maximum bit rate : 8 000 kb/s
Width : 1 280 pixels
Height : 720 pixels
Display aspect ratio : 16:9
Frame rate mode : Constant
Frame rate : 29.970 (30000/1001) FPS
Color space : YUV
Chroma subsampling : 4:2:0
Bit depth : 8 bits
Scan type : Progressive
Bits/(Pixel*Frame) : 0.090
Stream size : 3.36 GiB (93%)
Default : Yes
Forced : No
Color range : Limited
Color primaries : BT.709
Transfer characteristics : BT.709
Matrix coefficients : BT.709

NOAH Cross Over 2021

Audio
ID : 2
Format : AAC LC
Codec ID : A_AAC-2
Duration : 3 h 14 min
Bit rate : 192 kb/s
Channel(s) : 2 channels
Channel layout : L R
Sampling rate : 48.0 kHz
Frame rate : 46.875 FPS (1024 SPF)
Compression mode : Lossy
Delay relative to video : 3 ms
Stream size : 263 MiB (7%)
Default : Yes
Forced : No

Complete name : NOAH.2021.07.11.Cross.Over.2021.in.Sendai.ENGLISH.WEB.h264-LATE.mkv
Format : Matroska
Format version : Version 4
File size : 1.77 GiB
Duration : 3 h 14 min
Overall bit rate mode : Variable
Overall bit rate : 1 305 kb/s

NOAH Cross Over 2021

Video
ID : 1
Format : AVC
Format/Info : Advanced Video
Duration : 3 h 14 min
Bit rate mode : Variable
Bit rate : 1 177 kb/s
Maximum bit rate : 4 000 kb/s
Width : 960 pixels
Height : 540 pixels
Display aspect ratio : 16:9
Frame rate mode : Constant
Frame rate : 29.970 (30000/1001) FPS
Color space : YUV
Chroma subsampling : 4:2:0
Bit depth : 8 bits
Scan type : Progressive
Bits/(Pixel*Frame) : 0.076
Stream size : 1.60 GiB (90%)
Default : Yes
Forced : No
Color range : Limited
Color primaries : BT.709
Transfer characteristics : BT.709
Matrix coefficients : BT.709

Audio
ID : 2
Format : AAC LC
Format/Info : Advanced Audio
Codec ID : A_AAC-2
Duration : 3 h 14 min
Bit rate : 125 kb/s
Channel(s) : 2 channels
Channel layout : L R
Sampling rate : 48.0 kHz
Frame rate : 46.875 FPS (1024 SPF)
Compression mode : Lossy
Delay relative to video : 3 ms
Stream size : 174 MiB (10%)
Default : Yes
Forced : No

NOAH Cross Over 2021

 

[collapse]

 

 

https://dx-tv.com/

Leave a Reply

Your email address will not be published. Required fields are marked *

This site uses Akismet to reduce spam. Learn how your comment data is processed.