ROH Best in the World 2021 PPV Online Free Replay

ROH Best in the World 2021 PPV Online Free Replay DX-TV

ROH Best in the World 2021

 ROH Best in the World 2021

 

 

 

Download Links with High Speed


 

Dopapk

 

 

Show Links

 

http://shrt10.com/BTiDIs
http://shrt10.com/UeEY8hl

 

[collapse]

 

 

Nitroflare

 

 

Show Links

 

http://shrt10.com/0NxdnP
http://shrt10.com/pkDyNx5A

 

[collapse]

 

 

Rapidgator

 

 

Show Links

 

http://shrt10.com/kxHBq
http://shrt10.com/aMhWpz

 

[collapse]

 

 

Uploaded

 

 

Show Links

 

http://shrt10.com/HWnP2Tb
http://shrt10.com/MKzhCw

 

[collapse]

 

 

Watch online

 

Server 1

 

 

 

 

watch now

 

ROH Best in the World 2021

 

 

 

 

Server-2

 

 

 

 

watch now

 

watch now

 

 

 

|Server-3

 

 

 

 

ROH Best in the World 2021

 

watch now

 

 

Uploaded By Site DX-TV.com

 

 

Show Info This Show

ROH Best in the World 2021

 

 

Complete name : ROH.Best.In.The.World.2021.FITE.720p.WEBRip.h264-TJ.mp4
Format : MPEG-4
Format profile : Base Media
Codec ID : isom
File size : 2.76 GiB
Duration : 2 h 56 min
Overall bit rate mode : Variable
Overall bit rate : 2 238 kb/s

Video
ID : 1
Format : AVC
Format/Info : Advanced Video
Duration : 2 h 56 min
Source duration : 2 h 56 min
Bit rate : 2 010 kb/s
Width : 1 280 pixels
Height : 720 pixels
Display aspect ratio : 16:9
Frame rate mode : Constant
Frame rate : 29.970 (30000/1001) FPS
Color space : YUV
Chroma subsampling : 4:2:0
Bit depth : 8 bits
Scan type : Progressive
Bits/(Pixel*Frame) : 0.073
Stream size : 2.48 GiB (90%)
Source stream size : 2.59 GiB (94%)
mdhd_Duration : 10593950
Codec configuration box : avcC

ROH Best in the World 2021

Audio
ID : 2
Format : AAC LC
Codec ID : mp4a-40-2
Duration : 2 h 56 min
Bit rate mode : Variable
Bit rate : 129 kb/s
Maximum bit rate : 142 kb/s
Channel(s) : 2 channels
Channel layout : L R
Sampling rate : 48.0 kHz
Frame rate : 46.875 FPS (1024 SPF)
Compression mode : Lossy
Stream size : 163 MiB (6%)
Default : Yes
Alternate group : 1

Text
ID : 1-CC3
Format : EIA-608
Muxing mode : SCTE 128
Muxing mode, more info : Muxed in Video #1
Duration : 2 h 56 min
Bit rate mode : Constant
Stream size : 0.00 Byte (0%)
CaptionServiceName : CC3

ROH Best in the World 2021

Complete name : ROH Best in the World 11.07.21 Hour One.mp4
Format : MPEG-4
Format profile : Base Media
Codec ID : isom
File size : 1.77 GiB
Duration : 59 min 47 s
Overall bit rate : 4 246 kb/s

Video
ID : 1
Format : AVC
Format/Info : Advanced Video
Duration : 59 min 47 s
Bit rate : 4 110 kb/s
Width : 1 920 pixels
Height : 1 080 pixels
Display aspect ratio : 16:9
Frame rate mode : Constant
Frame rate : 29.970 (30000/1001) FPS
Color space : YUV
Chroma subsampling : 4:2:0
Bit depth : 8 bits
Scan type : Progressive
Bits/(Pixel*Frame) : 0.066
Stream size : 1.72 GiB (97%)
Color range : Limited
Color primaries : BT.709
Transfer characteristics : BT.709
Matrix coefficients : BT.709
Codec configuration box : avc

ROH Best in the World 2021

Audio
ID : 2
Format : AAC LC
Format/Info : Advanced Audio
Codec ID : mp4a-40-2
Duration : 59 min 47 s
Bit rate mode : Constant
Bit rate : 128 kb/s
Channel(s) : 2 channels
Channel layout : L R
Sampling rate : 44.1 kHz
Frame rate : 43.066 FPS (1024 SPF)
Compression mode : Lossy
Stream size : 54.7 MiB (3%)
Language : English
Default : Yes
Alternate group : 1

ROH Best in the World 2021

 

Complete name : ROH.Best.In.The.World.2021.FITE.720p.WEBRip.h264-TJ.mp4
Format : MPEG-4
Format profile : Base Media
Codec ID : isom
File size : 2.76 GiB
Duration : 2 h 56 min
Overall bit rate mode : Variable
Overall bit rate : 2 238 kb/s

Video
ID : 1
Format : AVC
Format/Info : Advanced Video
Duration : 2 h 56 min
Source duration : 2 h 56 min
Bit rate : 2 010 kb/s
Width : 1 280 pixels
Height : 720 pixels
Display aspect ratio : 16:9
Frame rate mode : Constant
Frame rate : 29.970 (30000/1001) FPS
Color space : YUV
Chroma subsampling : 4:2:0
Bit depth : 8 bits
Scan type : Progressive
Bits/(Pixel*Frame) : 0.073
Stream size : 2.48 GiB (90%)
Source stream size : 2.59 GiB (94%)
mdhd_Duration : 10593950
Codec configuration box : avcC

ROH Best in the World 2021

Audio
ID : 2
Format : AAC LC
Codec ID : mp4a-40-2
Duration : 2 h 56 min
Bit rate mode : Variable
Bit rate : 129 kb/s
Maximum bit rate : 142 kb/s
Channel(s) : 2 channels
Channel layout : L R
Sampling rate : 48.0 kHz
Frame rate : 46.875 FPS (1024 SPF)
Compression mode : Lossy
Stream size : 163 MiB (6%)
Default : Yes
Alternate group : 1

Text
ID : 1-CC3
Format : EIA-608
Muxing mode : SCTE 128
Muxing mode, more info : Muxed in Video #1
Duration : 2 h 56 min
Bit rate mode : Constant
Stream size : 0.00 Byte (0%)
CaptionServiceName : CC3

ROH Best in the World 2021

Complete name : ROH Best in the World 11.07.21 Hour One.mp4
Format : MPEG-4
Format profile : Base Media
Codec ID : isom
File size : 1.77 GiB
Duration : 59 min 47 s
Overall bit rate : 4 246 kb/s

Video
ID : 1
Format : AVC
Format/Info : Advanced Video
Duration : 59 min 47 s
Bit rate : 4 110 kb/s
Width : 1 920 pixels
Height : 1 080 pixels
Display aspect ratio : 16:9
Frame rate mode : Constant
Frame rate : 29.970 (30000/1001) FPS
Color space : YUV
Chroma subsampling : 4:2:0
Bit depth : 8 bits
Scan type : Progressive
Bits/(Pixel*Frame) : 0.066
Stream size : 1.72 GiB (97%)
Color range : Limited
Color primaries : BT.709
Transfer characteristics : BT.709
Matrix coefficients : BT.709
Codec configuration box : avc

ROH Best in the World 2021

Audio
ID : 2
Format : AAC LC
Format/Info : Advanced Audio
Codec ID : mp4a-40-2
Duration : 59 min 47 s
Bit rate mode : Constant
Bit rate : 128 kb/s
Channel(s) : 2 channels
Channel layout : L R
Sampling rate : 44.1 kHz
Frame rate : 43.066 FPS (1024 SPF)
Compression mode : Lossy
Stream size : 54.7 MiB (3%)
Language : English
Default : Yes
Alternate group : 1

ROH Best in the World 2021

 

Complete name : ROH.Best.In.The.World.2021.FITE.720p.WEBRip.h264-TJ.mp4
Format : MPEG-4
Format profile : Base Media
Codec ID : isom
File size : 2.76 GiB
Duration : 2 h 56 min
Overall bit rate mode : Variable
Overall bit rate : 2 238 kb/s

Video
ID : 1
Format : AVC
Format/Info : Advanced Video
Duration : 2 h 56 min
Source duration : 2 h 56 min
Bit rate : 2 010 kb/s
Width : 1 280 pixels
Height : 720 pixels
Display aspect ratio : 16:9
Frame rate mode : Constant
Frame rate : 29.970 (30000/1001) FPS
Color space : YUV
Chroma subsampling : 4:2:0
Bit depth : 8 bits
Scan type : Progressive
Bits/(Pixel*Frame) : 0.073
Stream size : 2.48 GiB (90%)
Source stream size : 2.59 GiB (94%)
mdhd_Duration : 10593950
Codec configuration box : avcC

ROH Best in the World 2021

Audio
ID : 2
Format : AAC LC
Codec ID : mp4a-40-2
Duration : 2 h 56 min
Bit rate mode : Variable
Bit rate : 129 kb/s
Maximum bit rate : 142 kb/s
Channel(s) : 2 channels
Channel layout : L R
Sampling rate : 48.0 kHz
Frame rate : 46.875 FPS (1024 SPF)
Compression mode : Lossy
Stream size : 163 MiB (6%)
Default : Yes
Alternate group : 1

Text
ID : 1-CC3
Format : EIA-608
Muxing mode : SCTE 128
Muxing mode, more info : Muxed in Video #1
Duration : 2 h 56 min
Bit rate mode : Constant
Stream size : 0.00 Byte (0%)
CaptionServiceName : CC3

ROH Best in the World 2021

Complete name : ROH Best in the World 11.07.21 Hour One.mp4
Format : MPEG-4
Format profile : Base Media
Codec ID : isom
File size : 1.77 GiB
Duration : 59 min 47 s
Overall bit rate : 4 246 kb/s

Video
ID : 1
Format : AVC
Format/Info : Advanced Video
Duration : 59 min 47 s
Bit rate : 4 110 kb/s
Width : 1 920 pixels
Height : 1 080 pixels
Display aspect ratio : 16:9
Frame rate mode : Constant
Frame rate : 29.970 (30000/1001) FPS
Color space : YUV
Chroma subsampling : 4:2:0
Bit depth : 8 bits
Scan type : Progressive
Bits/(Pixel*Frame) : 0.066
Stream size : 1.72 GiB (97%)
Color range : Limited
Color primaries : BT.709
Transfer characteristics : BT.709
Matrix coefficients : BT.709
Codec configuration box : avc

ROH Best in the World 2021

Audio
ID : 2
Format : AAC LC
Format/Info : Advanced Audio
Codec ID : mp4a-40-2
Duration : 59 min 47 s
Bit rate mode : Constant
Bit rate : 128 kb/s
Channel(s) : 2 channels
Channel layout : L R
Sampling rate : 44.1 kHz
Frame rate : 43.066 FPS (1024 SPF)
Compression mode : Lossy
Stream size : 54.7 MiB (3%)
Language : English
Default : Yes
Alternate group : 1

ROH Best in the World 2021

 

Complete name : ROH.Best.In.The.World.2021.FITE.720p.WEBRip.h264-TJ.mp4
Format : MPEG-4
Format profile : Base Media
Codec ID : isom
File size : 2.76 GiB
Duration : 2 h 56 min
Overall bit rate mode : Variable
Overall bit rate : 2 238 kb/s

Video
ID : 1
Format : AVC
Format/Info : Advanced Video
Duration : 2 h 56 min
Source duration : 2 h 56 min
Bit rate : 2 010 kb/s
Width : 1 280 pixels
Height : 720 pixels
Display aspect ratio : 16:9
Frame rate mode : Constant
Frame rate : 29.970 (30000/1001) FPS
Color space : YUV
Chroma subsampling : 4:2:0
Bit depth : 8 bits
Scan type : Progressive
Bits/(Pixel*Frame) : 0.073
Stream size : 2.48 GiB (90%)
Source stream size : 2.59 GiB (94%)
mdhd_Duration : 10593950
Codec configuration box : avcC

ROH Best in the World 2021

Audio
ID : 2
Format : AAC LC
Codec ID : mp4a-40-2
Duration : 2 h 56 min
Bit rate mode : Variable
Bit rate : 129 kb/s
Maximum bit rate : 142 kb/s
Channel(s) : 2 channels
Channel layout : L R
Sampling rate : 48.0 kHz
Frame rate : 46.875 FPS (1024 SPF)
Compression mode : Lossy
Stream size : 163 MiB (6%)
Default : Yes
Alternate group : 1

Text
ID : 1-CC3
Format : EIA-608
Muxing mode : SCTE 128
Muxing mode, more info : Muxed in Video #1
Duration : 2 h 56 min
Bit rate mode : Constant
Stream size : 0.00 Byte (0%)
CaptionServiceName : CC3

ROH Best in the World 2021

Complete name : ROH Best in the World 11.07.21 Hour One.mp4
Format : MPEG-4
Format profile : Base Media
Codec ID : isom
File size : 1.77 GiB
Duration : 59 min 47 s
Overall bit rate : 4 246 kb/s

Video
ID : 1
Format : AVC
Format/Info : Advanced Video
Duration : 59 min 47 s
Bit rate : 4 110 kb/s
Width : 1 920 pixels
Height : 1 080 pixels
Display aspect ratio : 16:9
Frame rate mode : Constant
Frame rate : 29.970 (30000/1001) FPS
Color space : YUV
Chroma subsampling : 4:2:0
Bit depth : 8 bits
Scan type : Progressive
Bits/(Pixel*Frame) : 0.066
Stream size : 1.72 GiB (97%)
Color range : Limited
Color primaries : BT.709
Transfer characteristics : BT.709
Matrix coefficients : BT.709
Codec configuration box : avc

ROH Best in the World 2021

Audio
ID : 2
Format : AAC LC
Format/Info : Advanced Audio
Codec ID : mp4a-40-2
Duration : 59 min 47 s
Bit rate mode : Constant
Bit rate : 128 kb/s
Channel(s) : 2 channels
Channel layout : L R
Sampling rate : 44.1 kHz
Frame rate : 43.066 FPS (1024 SPF)
Compression mode : Lossy
Stream size : 54.7 MiB (3%)
Language : English
Default : Yes
Alternate group : 1

ROH Best in the World 2021

 

Complete name : ROH.Best.In.The.World.2021.FITE.720p.WEBRip.h264-TJ.mp4
Format : MPEG-4
Format profile : Base Media
Codec ID : isom
File size : 2.76 GiB
Duration : 2 h 56 min
Overall bit rate mode : Variable
Overall bit rate : 2 238 kb/s

Video
ID : 1
Format : AVC
Format/Info : Advanced Video
Duration : 2 h 56 min
Source duration : 2 h 56 min
Bit rate : 2 010 kb/s
Width : 1 280 pixels
Height : 720 pixels
Display aspect ratio : 16:9
Frame rate mode : Constant
Frame rate : 29.970 (30000/1001) FPS
Color space : YUV
Chroma subsampling : 4:2:0
Bit depth : 8 bits
Scan type : Progressive
Bits/(Pixel*Frame) : 0.073
Stream size : 2.48 GiB (90%)
Source stream size : 2.59 GiB (94%)
mdhd_Duration : 10593950
Codec configuration box : avcC

ROH Best in the World 2021

Audio
ID : 2
Format : AAC LC
Codec ID : mp4a-40-2
Duration : 2 h 56 min
Bit rate mode : Variable
Bit rate : 129 kb/s
Maximum bit rate : 142 kb/s
Channel(s) : 2 channels
Channel layout : L R
Sampling rate : 48.0 kHz
Frame rate : 46.875 FPS (1024 SPF)
Compression mode : Lossy
Stream size : 163 MiB (6%)
Default : Yes
Alternate group : 1

Text
ID : 1-CC3
Format : EIA-608
Muxing mode : SCTE 128
Muxing mode, more info : Muxed in Video #1
Duration : 2 h 56 min
Bit rate mode : Constant
Stream size : 0.00 Byte (0%)
CaptionServiceName : CC3

ROH Best in the World 2021

Complete name : ROH Best in the World 11.07.21 Hour One.mp4
Format : MPEG-4
Format profile : Base Media
Codec ID : isom
File size : 1.77 GiB
Duration : 59 min 47 s
Overall bit rate : 4 246 kb/s

Video
ID : 1
Format : AVC
Format/Info : Advanced Video
Duration : 59 min 47 s
Bit rate : 4 110 kb/s
Width : 1 920 pixels
Height : 1 080 pixels
Display aspect ratio : 16:9
Frame rate mode : Constant
Frame rate : 29.970 (30000/1001) FPS
Color space : YUV
Chroma subsampling : 4:2:0
Bit depth : 8 bits
Scan type : Progressive
Bits/(Pixel*Frame) : 0.066
Stream size : 1.72 GiB (97%)
Color range : Limited
Color primaries : BT.709
Transfer characteristics : BT.709
Matrix coefficients : BT.709
Codec configuration box : avc

ROH Best in the World 2021

Audio
ID : 2
Format : AAC LC
Format/Info : Advanced Audio
Codec ID : mp4a-40-2
Duration : 59 min 47 s
Bit rate mode : Constant
Bit rate : 128 kb/s
Channel(s) : 2 channels
Channel layout : L R
Sampling rate : 44.1 kHz
Frame rate : 43.066 FPS (1024 SPF)
Compression mode : Lossy
Stream size : 54.7 MiB (3%)
Language : English
Default : Yes
Alternate group : 1

ROH Best in the World 2021

 

Complete name : ROH.Best.In.The.World.2021.FITE.720p.WEBRip.h264-TJ.mp4
Format : MPEG-4
Format profile : Base Media
Codec ID : isom
File size : 2.76 GiB
Duration : 2 h 56 min
Overall bit rate mode : Variable
Overall bit rate : 2 238 kb/s

Video
ID : 1
Format : AVC
Format/Info : Advanced Video
Duration : 2 h 56 min
Source duration : 2 h 56 min
Bit rate : 2 010 kb/s
Width : 1 280 pixels
Height : 720 pixels
Display aspect ratio : 16:9
Frame rate mode : Constant
Frame rate : 29.970 (30000/1001) FPS
Color space : YUV
Chroma subsampling : 4:2:0
Bit depth : 8 bits
Scan type : Progressive
Bits/(Pixel*Frame) : 0.073
Stream size : 2.48 GiB (90%)
Source stream size : 2.59 GiB (94%)
mdhd_Duration : 10593950
Codec configuration box : avcC

ROH Best in the World 2021

Audio
ID : 2
Format : AAC LC
Codec ID : mp4a-40-2
Duration : 2 h 56 min
Bit rate mode : Variable
Bit rate : 129 kb/s
Maximum bit rate : 142 kb/s
Channel(s) : 2 channels
Channel layout : L R
Sampling rate : 48.0 kHz
Frame rate : 46.875 FPS (1024 SPF)
Compression mode : Lossy
Stream size : 163 MiB (6%)
Default : Yes
Alternate group : 1

Text
ID : 1-CC3
Format : EIA-608
Muxing mode : SCTE 128
Muxing mode, more info : Muxed in Video #1
Duration : 2 h 56 min
Bit rate mode : Constant
Stream size : 0.00 Byte (0%)
CaptionServiceName : CC3

ROH Best in the World 2021

Complete name : ROH Best in the World 11.07.21 Hour One.mp4
Format : MPEG-4
Format profile : Base Media
Codec ID : isom
File size : 1.77 GiB
Duration : 59 min 47 s
Overall bit rate : 4 246 kb/s

Video
ID : 1
Format : AVC
Format/Info : Advanced Video
Duration : 59 min 47 s
Bit rate : 4 110 kb/s
Width : 1 920 pixels
Height : 1 080 pixels
Display aspect ratio : 16:9
Frame rate mode : Constant
Frame rate : 29.970 (30000/1001) FPS
Color space : YUV
Chroma subsampling : 4:2:0
Bit depth : 8 bits
Scan type : Progressive
Bits/(Pixel*Frame) : 0.066
Stream size : 1.72 GiB (97%)
Color range : Limited
Color primaries : BT.709
Transfer characteristics : BT.709
Matrix coefficients : BT.709
Codec configuration box : avc

ROH Best in the World 2021

Audio
ID : 2
Format : AAC LC
Format/Info : Advanced Audio
Codec ID : mp4a-40-2
Duration : 59 min 47 s
Bit rate mode : Constant
Bit rate : 128 kb/s
Channel(s) : 2 channels
Channel layout : L R
Sampling rate : 44.1 kHz
Frame rate : 43.066 FPS (1024 SPF)
Compression mode : Lossy
Stream size : 54.7 MiB (3%)
Language : English
Default : Yes
Alternate group : 1

ROH Best in the World 2021

 

Complete name : ROH.Best.In.The.World.2021.FITE.720p.WEBRip.h264-TJ.mp4
Format : MPEG-4
Format profile : Base Media
Codec ID : isom
File size : 2.76 GiB
Duration : 2 h 56 min
Overall bit rate mode : Variable
Overall bit rate : 2 238 kb/s

Video
ID : 1
Format : AVC
Format/Info : Advanced Video
Duration : 2 h 56 min
Source duration : 2 h 56 min
Bit rate : 2 010 kb/s
Width : 1 280 pixels
Height : 720 pixels
Display aspect ratio : 16:9
Frame rate mode : Constant
Frame rate : 29.970 (30000/1001) FPS
Color space : YUV
Chroma subsampling : 4:2:0
Bit depth : 8 bits
Scan type : Progressive
Bits/(Pixel*Frame) : 0.073
Stream size : 2.48 GiB (90%)
Source stream size : 2.59 GiB (94%)
mdhd_Duration : 10593950
Codec configuration box : avcC

ROH Best in the World 2021

Audio
ID : 2
Format : AAC LC
Codec ID : mp4a-40-2
Duration : 2 h 56 min
Bit rate mode : Variable
Bit rate : 129 kb/s
Maximum bit rate : 142 kb/s
Channel(s) : 2 channels
Channel layout : L R
Sampling rate : 48.0 kHz
Frame rate : 46.875 FPS (1024 SPF)
Compression mode : Lossy
Stream size : 163 MiB (6%)
Default : Yes
Alternate group : 1

Text
ID : 1-CC3
Format : EIA-608
Muxing mode : SCTE 128
Muxing mode, more info : Muxed in Video #1
Duration : 2 h 56 min
Bit rate mode : Constant
Stream size : 0.00 Byte (0%)
CaptionServiceName : CC3

ROH Best in the World 2021

Complete name : ROH Best in the World 11.07.21 Hour One.mp4
Format : MPEG-4
Format profile : Base Media
Codec ID : isom
File size : 1.77 GiB
Duration : 59 min 47 s
Overall bit rate : 4 246 kb/s

Video
ID : 1
Format : AVC
Format/Info : Advanced Video
Duration : 59 min 47 s
Bit rate : 4 110 kb/s
Width : 1 920 pixels
Height : 1 080 pixels
Display aspect ratio : 16:9
Frame rate mode : Constant
Frame rate : 29.970 (30000/1001) FPS
Color space : YUV
Chroma subsampling : 4:2:0
Bit depth : 8 bits
Scan type : Progressive
Bits/(Pixel*Frame) : 0.066
Stream size : 1.72 GiB (97%)
Color range : Limited
Color primaries : BT.709
Transfer characteristics : BT.709
Matrix coefficients : BT.709
Codec configuration box : avc

ROH Best in the World 2021

Audio
ID : 2
Format : AAC LC
Format/Info : Advanced Audio
Codec ID : mp4a-40-2
Duration : 59 min 47 s
Bit rate mode : Constant
Bit rate : 128 kb/s
Channel(s) : 2 channels
Channel layout : L R
Sampling rate : 44.1 kHz
Frame rate : 43.066 FPS (1024 SPF)
Compression mode : Lossy
Stream size : 54.7 MiB (3%)
Language : English
Default : Yes
Alternate group : 1

ROH Best in the World 2021

 

Complete name : ROH.Best.In.The.World.2021.FITE.720p.WEBRip.h264-TJ.mp4
Format : MPEG-4
Format profile : Base Media
Codec ID : isom
File size : 2.76 GiB
Duration : 2 h 56 min
Overall bit rate mode : Variable
Overall bit rate : 2 238 kb/s

Video
ID : 1
Format : AVC
Format/Info : Advanced Video
Duration : 2 h 56 min
Source duration : 2 h 56 min
Bit rate : 2 010 kb/s
Width : 1 280 pixels
Height : 720 pixels
Display aspect ratio : 16:9
Frame rate mode : Constant
Frame rate : 29.970 (30000/1001) FPS
Color space : YUV
Chroma subsampling : 4:2:0
Bit depth : 8 bits
Scan type : Progressive
Bits/(Pixel*Frame) : 0.073
Stream size : 2.48 GiB (90%)
Source stream size : 2.59 GiB (94%)
mdhd_Duration : 10593950
Codec configuration box : avcC

ROH Best in the World 2021

Audio
ID : 2
Format : AAC LC
Codec ID : mp4a-40-2
Duration : 2 h 56 min
Bit rate mode : Variable
Bit rate : 129 kb/s
Maximum bit rate : 142 kb/s
Channel(s) : 2 channels
Channel layout : L R
Sampling rate : 48.0 kHz
Frame rate : 46.875 FPS (1024 SPF)
Compression mode : Lossy
Stream size : 163 MiB (6%)
Default : Yes
Alternate group : 1

Text
ID : 1-CC3
Format : EIA-608
Muxing mode : SCTE 128
Muxing mode, more info : Muxed in Video #1
Duration : 2 h 56 min
Bit rate mode : Constant
Stream size : 0.00 Byte (0%)
CaptionServiceName : CC3

ROH Best in the World 2021

Complete name : ROH Best in the World 11.07.21 Hour One.mp4
Format : MPEG-4
Format profile : Base Media
Codec ID : isom
File size : 1.77 GiB
Duration : 59 min 47 s
Overall bit rate : 4 246 kb/s

Video
ID : 1
Format : AVC
Format/Info : Advanced Video
Duration : 59 min 47 s
Bit rate : 4 110 kb/s
Width : 1 920 pixels
Height : 1 080 pixels
Display aspect ratio : 16:9
Frame rate mode : Constant
Frame rate : 29.970 (30000/1001) FPS
Color space : YUV
Chroma subsampling : 4:2:0
Bit depth : 8 bits
Scan type : Progressive
Bits/(Pixel*Frame) : 0.066
Stream size : 1.72 GiB (97%)
Color range : Limited
Color primaries : BT.709
Transfer characteristics : BT.709
Matrix coefficients : BT.709
Codec configuration box : avc

ROH Best in the World 2021

Audio
ID : 2
Format : AAC LC
Format/Info : Advanced Audio
Codec ID : mp4a-40-2
Duration : 59 min 47 s
Bit rate mode : Constant
Bit rate : 128 kb/s
Channel(s) : 2 channels
Channel layout : L R
Sampling rate : 44.1 kHz
Frame rate : 43.066 FPS (1024 SPF)
Compression mode : Lossy
Stream size : 54.7 MiB (3%)
Language : English
Default : Yes
Alternate group : 1

ROH Best in the World 2021

 

Complete name : ROH.Best.In.The.World.2021.FITE.720p.WEBRip.h264-TJ.mp4
Format : MPEG-4
Format profile : Base Media
Codec ID : isom
File size : 2.76 GiB
Duration : 2 h 56 min
Overall bit rate mode : Variable
Overall bit rate : 2 238 kb/s

Video
ID : 1
Format : AVC
Format/Info : Advanced Video
Duration : 2 h 56 min
Source duration : 2 h 56 min
Bit rate : 2 010 kb/s
Width : 1 280 pixels
Height : 720 pixels
Display aspect ratio : 16:9
Frame rate mode : Constant
Frame rate : 29.970 (30000/1001) FPS
Color space : YUV
Chroma subsampling : 4:2:0
Bit depth : 8 bits
Scan type : Progressive
Bits/(Pixel*Frame) : 0.073
Stream size : 2.48 GiB (90%)
Source stream size : 2.59 GiB (94%)
mdhd_Duration : 10593950
Codec configuration box : avcC

ROH Best in the World 2021

Audio
ID : 2
Format : AAC LC
Codec ID : mp4a-40-2
Duration : 2 h 56 min
Bit rate mode : Variable
Bit rate : 129 kb/s
Maximum bit rate : 142 kb/s
Channel(s) : 2 channels
Channel layout : L R
Sampling rate : 48.0 kHz
Frame rate : 46.875 FPS (1024 SPF)
Compression mode : Lossy
Stream size : 163 MiB (6%)
Default : Yes
Alternate group : 1

Text
ID : 1-CC3
Format : EIA-608
Muxing mode : SCTE 128
Muxing mode, more info : Muxed in Video #1
Duration : 2 h 56 min
Bit rate mode : Constant
Stream size : 0.00 Byte (0%)
CaptionServiceName : CC3

ROH Best in the World 2021

Complete name : ROH Best in the World 11.07.21 Hour One.mp4
Format : MPEG-4
Format profile : Base Media
Codec ID : isom
File size : 1.77 GiB
Duration : 59 min 47 s
Overall bit rate : 4 246 kb/s

Video
ID : 1
Format : AVC
Format/Info : Advanced Video
Duration : 59 min 47 s
Bit rate : 4 110 kb/s
Width : 1 920 pixels
Height : 1 080 pixels
Display aspect ratio : 16:9
Frame rate mode : Constant
Frame rate : 29.970 (30000/1001) FPS
Color space : YUV
Chroma subsampling : 4:2:0
Bit depth : 8 bits
Scan type : Progressive
Bits/(Pixel*Frame) : 0.066
Stream size : 1.72 GiB (97%)
Color range : Limited
Color primaries : BT.709
Transfer characteristics : BT.709
Matrix coefficients : BT.709
Codec configuration box : avc

ROH Best in the World 2021

Audio
ID : 2
Format : AAC LC
Format/Info : Advanced Audio
Codec ID : mp4a-40-2
Duration : 59 min 47 s
Bit rate mode : Constant
Bit rate : 128 kb/s
Channel(s) : 2 channels
Channel layout : L R
Sampling rate : 44.1 kHz
Frame rate : 43.066 FPS (1024 SPF)
Compression mode : Lossy
Stream size : 54.7 MiB (3%)
Language : English
Default : Yes
Alternate group : 1

ROH Best in the World 2021

 

Complete name : ROH.Best.In.The.World.2021.FITE.720p.WEBRip.h264-TJ.mp4
Format : MPEG-4
Format profile : Base Media
Codec ID : isom
File size : 2.76 GiB
Duration : 2 h 56 min
Overall bit rate mode : Variable
Overall bit rate : 2 238 kb/s

Video
ID : 1
Format : AVC
Format/Info : Advanced Video
Duration : 2 h 56 min
Source duration : 2 h 56 min
Bit rate : 2 010 kb/s
Width : 1 280 pixels
Height : 720 pixels
Display aspect ratio : 16:9
Frame rate mode : Constant
Frame rate : 29.970 (30000/1001) FPS
Color space : YUV
Chroma subsampling : 4:2:0
Bit depth : 8 bits
Scan type : Progressive
Bits/(Pixel*Frame) : 0.073
Stream size : 2.48 GiB (90%)
Source stream size : 2.59 GiB (94%)
mdhd_Duration : 10593950
Codec configuration box : avcC

ROH Best in the World 2021

Audio
ID : 2
Format : AAC LC
Codec ID : mp4a-40-2
Duration : 2 h 56 min
Bit rate mode : Variable
Bit rate : 129 kb/s
Maximum bit rate : 142 kb/s
Channel(s) : 2 channels
Channel layout : L R
Sampling rate : 48.0 kHz
Frame rate : 46.875 FPS (1024 SPF)
Compression mode : Lossy
Stream size : 163 MiB (6%)
Default : Yes
Alternate group : 1

Text
ID : 1-CC3
Format : EIA-608
Muxing mode : SCTE 128
Muxing mode, more info : Muxed in Video #1
Duration : 2 h 56 min
Bit rate mode : Constant
Stream size : 0.00 Byte (0%)
CaptionServiceName : CC3

ROH Best in the World 2021

Complete name : ROH Best in the World 11.07.21 Hour One.mp4
Format : MPEG-4
Format profile : Base Media
Codec ID : isom
File size : 1.77 GiB
Duration : 59 min 47 s
Overall bit rate : 4 246 kb/s

Video
ID : 1
Format : AVC
Format/Info : Advanced Video
Duration : 59 min 47 s
Bit rate : 4 110 kb/s
Width : 1 920 pixels
Height : 1 080 pixels
Display aspect ratio : 16:9
Frame rate mode : Constant
Frame rate : 29.970 (30000/1001) FPS
Color space : YUV
Chroma subsampling : 4:2:0
Bit depth : 8 bits
Scan type : Progressive
Bits/(Pixel*Frame) : 0.066
Stream size : 1.72 GiB (97%)
Color range : Limited
Color primaries : BT.709
Transfer characteristics : BT.709
Matrix coefficients : BT.709
Codec configuration box : avc

ROH Best in the World 2021

Audio
ID : 2
Format : AAC LC
Format/Info : Advanced Audio
Codec ID : mp4a-40-2
Duration : 59 min 47 s
Bit rate mode : Constant
Bit rate : 128 kb/s
Channel(s) : 2 channels
Channel layout : L R
Sampling rate : 44.1 kHz
Frame rate : 43.066 FPS (1024 SPF)
Compression mode : Lossy
Stream size : 54.7 MiB (3%)
Language : English
Default : Yes
Alternate group : 1

ROH Best in the World 2021

 

Complete name : ROH.Best.In.The.World.2021.FITE.720p.WEBRip.h264-TJ.mp4
Format : MPEG-4
Format profile : Base Media
Codec ID : isom
File size : 2.76 GiB
Duration : 2 h 56 min
Overall bit rate mode : Variable
Overall bit rate : 2 238 kb/s

Video
ID : 1
Format : AVC
Format/Info : Advanced Video
Duration : 2 h 56 min
Source duration : 2 h 56 min
Bit rate : 2 010 kb/s
Width : 1 280 pixels
Height : 720 pixels
Display aspect ratio : 16:9
Frame rate mode : Constant
Frame rate : 29.970 (30000/1001) FPS
Color space : YUV
Chroma subsampling : 4:2:0
Bit depth : 8 bits
Scan type : Progressive
Bits/(Pixel*Frame) : 0.073
Stream size : 2.48 GiB (90%)
Source stream size : 2.59 GiB (94%)
mdhd_Duration : 10593950
Codec configuration box : avcC

ROH Best in the World 2021

Audio
ID : 2
Format : AAC LC
Codec ID : mp4a-40-2
Duration : 2 h 56 min
Bit rate mode : Variable
Bit rate : 129 kb/s
Maximum bit rate : 142 kb/s
Channel(s) : 2 channels
Channel layout : L R
Sampling rate : 48.0 kHz
Frame rate : 46.875 FPS (1024 SPF)
Compression mode : Lossy
Stream size : 163 MiB (6%)
Default : Yes
Alternate group : 1

Text
ID : 1-CC3
Format : EIA-608
Muxing mode : SCTE 128
Muxing mode, more info : Muxed in Video #1
Duration : 2 h 56 min
Bit rate mode : Constant
Stream size : 0.00 Byte (0%)
CaptionServiceName : CC3

ROH Best in the World 2021

Complete name : ROH Best in the World 11.07.21 Hour One.mp4
Format : MPEG-4
Format profile : Base Media
Codec ID : isom
File size : 1.77 GiB
Duration : 59 min 47 s
Overall bit rate : 4 246 kb/s

Video
ID : 1
Format : AVC
Format/Info : Advanced Video
Duration : 59 min 47 s
Bit rate : 4 110 kb/s
Width : 1 920 pixels
Height : 1 080 pixels
Display aspect ratio : 16:9
Frame rate mode : Constant
Frame rate : 29.970 (30000/1001) FPS
Color space : YUV
Chroma subsampling : 4:2:0
Bit depth : 8 bits
Scan type : Progressive
Bits/(Pixel*Frame) : 0.066
Stream size : 1.72 GiB (97%)
Color range : Limited
Color primaries : BT.709
Transfer characteristics : BT.709
Matrix coefficients : BT.709
Codec configuration box : avc

ROH Best in the World 2021

Audio
ID : 2
Format : AAC LC
Format/Info : Advanced Audio
Codec ID : mp4a-40-2
Duration : 59 min 47 s
Bit rate mode : Constant
Bit rate : 128 kb/s
Channel(s) : 2 channels
Channel layout : L R
Sampling rate : 44.1 kHz
Frame rate : 43.066 FPS (1024 SPF)
Compression mode : Lossy
Stream size : 54.7 MiB (3%)
Language : English
Default : Yes
Alternate group : 1

ROH Best in the World 2021

 

 

[collapse]

 

 

https://dx-tv.com/ vvvvvvvvvvv

You May Also Like

Leave a Reply

Your email address will not be published. Required fields are marked *

This site uses Akismet to reduce spam. Learn how your comment data is processed.