NOAH Cross Over 2021 1080p English Online Free

NOAH Cross Over 2021 08 01 1080p English in Hiroshima Online Free Replay DX-TV

NOAH Cross Over 2021

 NOAH Cross Over 2021

 

 

 

Download Links with premium High Speed


 

Dopapk

 

 

Show Links

 

http://shrt10.com/J6qDD5w
http://shrt10.com/QiYBP
http://shrt10.com/SA0uf

 

[collapse]

 

 

Nitroflare

 

 

Show Links

 

http://shrt10.com/2HMr6s
http://shrt10.com/vKdmT1
http://shrt10.com/1Jl93SCJ5

 

[collapse]

 

 

Rapidgator

 

 

Show Links

 

http://shrt10.com/ep0ow7U
http://shrt10.com/JjebLVVAS
http://shrt10.com/rZ6OjSs

 

[collapse]

 

 

Uploaded

 

 

Show Links

 

http://shrt10.com/zTSqB3IG
http://shrt10.com/iVfxr0

 

[collapse]

 

 

Watch online

 

Server 1

 

 

 

 

NOAH Cross Over 2021

 

 

 

 

Server-2

 

 

 

 

watch now

 

 

 

|Server-3

 

 

 

 

watch now

 

 

Uploaded By Site DX-TV.com

 

 

Show Info This Show

NOAH Cross Over 2021

 

Complete name : NOAH.2021.08.01.Cross.Over.2021.in.Hiroshima.ENGLISH.1080p.WEB.h264-LATE.mkv
Format : Matroska
Format version : Version 4
File size : 7.60 GiB
Duration : 3 h 7 min
Overall bit rate mode : Variable
Overall bit rate : 5 787 kb/s

Video
ID : 1
Format : AVC
Format/Info : Advanced Video
Duration : 3 h 7 min
Bit rate mode : Variable
Bit rate : 5 403 kb/s
Maximum bit rate : 18.0 Mb/s
Width : 1 920 pixels
Height : 1 080 pixels
Display aspect ratio : 16:9
Frame rate mode : Constant
Frame rate : 29.970 (30000/1001) FPS
Color space : YUV
Chroma subsampling : 4:2:0
Bit depth : 8 bits
Scan type : Progressive
Bits/(Pixel*Frame) : 0.087
Stream size : 7.09 GiB (93%)
Default : Yes
Forced : No
Color range : Limited
Color primaries : BT.709
Transfer characteristics : BT.709
Matrix coefficients : BT.709

NOAH Cross Over 2021

Audio
ID : 2
Format : AAC LC
Codec ID : A_AAC-2
Duration : 3 h 7 min
Bit rate : 384 kb/s
Channel(s) : 2 channels
Channel layout : L R
Sampling rate : 48.0 kHz
Frame rate : 46.875 FPS (1024 SPF)
Compression mode : Lossy
Delay relative to video : 2 ms
Stream size : 513 MiB (7%)
Default : Yes
Forced : No

Complete name : NOAH.2021.08.01.Cross.Over.2021.in.Hiroshima.ENGLISH.720p.WEB.h264-LATE.mkv
Format : Matroska
Format version : Version 4
File size : 3.45 GiB
Duration : 3 h 7 min
Overall bit rate mode : Variable
Overall bit rate : 2 629 kb/s

NOAH Cross Over 2021

Video
ID : 1
Format : AVC
Format/Info : Advanced Video
Duration : 3 h 7 min
Bit rate mode : Variable
Bit rate : 2 437 kb/s
Maximum bit rate : 8 000 kb/s
Width : 1 280 pixels
Height : 720 pixels
Display aspect ratio : 16:9
Frame rate mode : Constant
Frame rate : 29.970 (30000/1001) FPS
Color space : YUV
Chroma subsampling : 4:2:0
Bit depth : 8 bits
Scan type : Progressive
Bits/(Pixel*Frame) : 0.088
Stream size : 3.20 GiB (93%)
Default : Yes
Forced : No
Color range : Limited
Color primaries : BT.709
Transfer characteristics : BT.709
Matrix coefficients : BT.709

Audio
ID : 2
Format : AAC LC
Codec ID : A_AAC-2
Duration : 3 h 7 min
Bit rate : 192 kb/s
Channel(s) : 2 channels
Channel layout : L R
Sampling rate : 48.0 kHz
Frame rate : 46.875 FPS (1024 SPF)
Compression mode : Lossy
Delay relative to video : 2 ms
Stream size : 255 MiB (7%)
Default : Yes
Forced : No

NOAH Cross Over 2021

Complete name : NOAH.2021.08.01.Cross.Over.2021.in.Hiroshima.ENGLISH.WEB.h264-LATE.mkv
Format : Matroska
Format version : Version 4
File size : 1.68 GiB
Duration : 3 h 7 min
Overall bit rate mode : Variable
Overall bit rate : 1 278 kb/s

Video
ID : 1
Format : AVC
Duration : 3 h 7 min
Bit rate mode : Variable
Bit rate : 1 150 kb/s
Maximum bit rate : 4 000 kb/s
Width : 960 pixels
Height : 540 pixels
Display aspect ratio : 16:9
Frame rate mode : Constant
Frame rate : 29.970 (30000/1001) FPS
Color space : YUV
Chroma subsampling : 4:2:0
Bit depth : 8 bits
Scan type : Progressive
Bits/(Pixel*Frame) : 0.074
Stream size : 1.51 GiB (90%)
Default : Yes
Forced : No
Color range : Limited
Color primaries : BT.709
Transfer characteristics : BT.709
Matrix coefficients : BT.709

NOAH Cross Over 2021

Audio
ID : 2
Format : AAC LC
Format/Info : Advanced Audio
Codec ID : A_AAC-2
Duration : 3 h 7 min
Bit rate : 125 kb/s
Channel(s) : 2 channels
Channel layout : L R
Sampling rate : 48.0 kHz
Frame rate : 46.875 FPS (1024 SPF)
Compression mode : Lossy
Delay relative to video : 2 ms
Stream size : 169 MiB (10%)
Default : Yes
Forced : No

NOAH Cross Over 2021

Complete name : NOAH.2021.08.01.Cross.Over.2021.in.Hiroshima.ENGLISH.1080p.WEB.h264-LATE.mkv
Format : Matroska
Format version : Version 4
File size : 7.60 GiB
Duration : 3 h 7 min
Overall bit rate mode : Variable
Overall bit rate : 5 787 kb/s

Video
ID : 1
Format : AVC
Format/Info : Advanced Video
Duration : 3 h 7 min
Bit rate mode : Variable
Bit rate : 5 403 kb/s
Maximum bit rate : 18.0 Mb/s
Width : 1 920 pixels
Height : 1 080 pixels
Display aspect ratio : 16:9
Frame rate mode : Constant
Frame rate : 29.970 (30000/1001) FPS
Color space : YUV
Chroma subsampling : 4:2:0
Bit depth : 8 bits
Scan type : Progressive
Bits/(Pixel*Frame) : 0.087
Stream size : 7.09 GiB (93%)
Default : Yes
Forced : No
Color range : Limited
Color primaries : BT.709
Transfer characteristics : BT.709
Matrix coefficients : BT.709

NOAH Cross Over 2021

Audio
ID : 2
Format : AAC LC
Codec ID : A_AAC-2
Duration : 3 h 7 min
Bit rate : 384 kb/s
Channel(s) : 2 channels
Channel layout : L R
Sampling rate : 48.0 kHz
Frame rate : 46.875 FPS (1024 SPF)
Compression mode : Lossy
Delay relative to video : 2 ms
Stream size : 513 MiB (7%)
Default : Yes
Forced : No

Complete name : NOAH.2021.08.01.Cross.Over.2021.in.Hiroshima.ENGLISH.720p.WEB.h264-LATE.mkv
Format : Matroska
Format version : Version 4
File size : 3.45 GiB
Duration : 3 h 7 min
Overall bit rate mode : Variable
Overall bit rate : 2 629 kb/s

NOAH Cross Over 2021

Video
ID : 1
Format : AVC
Format/Info : Advanced Video
Duration : 3 h 7 min
Bit rate mode : Variable
Bit rate : 2 437 kb/s
Maximum bit rate : 8 000 kb/s
Width : 1 280 pixels
Height : 720 pixels
Display aspect ratio : 16:9
Frame rate mode : Constant
Frame rate : 29.970 (30000/1001) FPS
Color space : YUV
Chroma subsampling : 4:2:0
Bit depth : 8 bits
Scan type : Progressive
Bits/(Pixel*Frame) : 0.088
Stream size : 3.20 GiB (93%)
Default : Yes
Forced : No
Color range : Limited
Color primaries : BT.709
Transfer characteristics : BT.709
Matrix coefficients : BT.709

Audio
ID : 2
Format : AAC LC
Codec ID : A_AAC-2
Duration : 3 h 7 min
Bit rate : 192 kb/s
Channel(s) : 2 channels
Channel layout : L R
Sampling rate : 48.0 kHz
Frame rate : 46.875 FPS (1024 SPF)
Compression mode : Lossy
Delay relative to video : 2 ms
Stream size : 255 MiB (7%)
Default : Yes
Forced : No

NOAH Cross Over 2021

Complete name : NOAH.2021.08.01.Cross.Over.2021.in.Hiroshima.ENGLISH.WEB.h264-LATE.mkv
Format : Matroska
Format version : Version 4
File size : 1.68 GiB
Duration : 3 h 7 min
Overall bit rate mode : Variable
Overall bit rate : 1 278 kb/s

Video
ID : 1
Format : AVC
Duration : 3 h 7 min
Bit rate mode : Variable
Bit rate : 1 150 kb/s
Maximum bit rate : 4 000 kb/s
Width : 960 pixels
Height : 540 pixels
Display aspect ratio : 16:9
Frame rate mode : Constant
Frame rate : 29.970 (30000/1001) FPS
Color space : YUV
Chroma subsampling : 4:2:0
Bit depth : 8 bits
Scan type : Progressive
Bits/(Pixel*Frame) : 0.074
Stream size : 1.51 GiB (90%)
Default : Yes
Forced : No
Color range : Limited
Color primaries : BT.709
Transfer characteristics : BT.709
Matrix coefficients : BT.709

NOAH Cross Over 2021

Audio
ID : 2
Format : AAC LC
Format/Info : Advanced Audio
Codec ID : A_AAC-2
Duration : 3 h 7 min
Bit rate : 125 kb/s
Channel(s) : 2 channels
Channel layout : L R
Sampling rate : 48.0 kHz
Frame rate : 46.875 FPS (1024 SPF)
Compression mode : Lossy
Delay relative to video : 2 ms
Stream size : 169 MiB (10%)
Default : Yes
Forced : No

NOAH Cross Over 2021

Complete name : NOAH.2021.08.01.Cross.Over.2021.in.Hiroshima.ENGLISH.1080p.WEB.h264-LATE.mkv
Format : Matroska
Format version : Version 4
File size : 7.60 GiB
Duration : 3 h 7 min
Overall bit rate mode : Variable
Overall bit rate : 5 787 kb/s

Video
ID : 1
Format : AVC
Format/Info : Advanced Video
Duration : 3 h 7 min
Bit rate mode : Variable
Bit rate : 5 403 kb/s
Maximum bit rate : 18.0 Mb/s
Width : 1 920 pixels
Height : 1 080 pixels
Display aspect ratio : 16:9
Frame rate mode : Constant
Frame rate : 29.970 (30000/1001) FPS
Color space : YUV
Chroma subsampling : 4:2:0
Bit depth : 8 bits
Scan type : Progressive
Bits/(Pixel*Frame) : 0.087
Stream size : 7.09 GiB (93%)
Default : Yes
Forced : No
Color range : Limited
Color primaries : BT.709
Transfer characteristics : BT.709
Matrix coefficients : BT.709

NOAH Cross Over 2021

Audio
ID : 2
Format : AAC LC
Codec ID : A_AAC-2
Duration : 3 h 7 min
Bit rate : 384 kb/s
Channel(s) : 2 channels
Channel layout : L R
Sampling rate : 48.0 kHz
Frame rate : 46.875 FPS (1024 SPF)
Compression mode : Lossy
Delay relative to video : 2 ms
Stream size : 513 MiB (7%)
Default : Yes
Forced : No

Complete name : NOAH.2021.08.01.Cross.Over.2021.in.Hiroshima.ENGLISH.720p.WEB.h264-LATE.mkv
Format : Matroska
Format version : Version 4
File size : 3.45 GiB
Duration : 3 h 7 min
Overall bit rate mode : Variable
Overall bit rate : 2 629 kb/s

NOAH Cross Over 2021

Video
ID : 1
Format : AVC
Format/Info : Advanced Video
Duration : 3 h 7 min
Bit rate mode : Variable
Bit rate : 2 437 kb/s
Maximum bit rate : 8 000 kb/s
Width : 1 280 pixels
Height : 720 pixels
Display aspect ratio : 16:9
Frame rate mode : Constant
Frame rate : 29.970 (30000/1001) FPS
Color space : YUV
Chroma subsampling : 4:2:0
Bit depth : 8 bits
Scan type : Progressive
Bits/(Pixel*Frame) : 0.088
Stream size : 3.20 GiB (93%)
Default : Yes
Forced : No
Color range : Limited
Color primaries : BT.709
Transfer characteristics : BT.709
Matrix coefficients : BT.709

Audio
ID : 2
Format : AAC LC
Codec ID : A_AAC-2
Duration : 3 h 7 min
Bit rate : 192 kb/s
Channel(s) : 2 channels
Channel layout : L R
Sampling rate : 48.0 kHz
Frame rate : 46.875 FPS (1024 SPF)
Compression mode : Lossy
Delay relative to video : 2 ms
Stream size : 255 MiB (7%)
Default : Yes
Forced : No

NOAH Cross Over 2021

Complete name : NOAH.2021.08.01.Cross.Over.2021.in.Hiroshima.ENGLISH.WEB.h264-LATE.mkv
Format : Matroska
Format version : Version 4
File size : 1.68 GiB
Duration : 3 h 7 min
Overall bit rate mode : Variable
Overall bit rate : 1 278 kb/s

Video
ID : 1
Format : AVC
Duration : 3 h 7 min
Bit rate mode : Variable
Bit rate : 1 150 kb/s
Maximum bit rate : 4 000 kb/s
Width : 960 pixels
Height : 540 pixels
Display aspect ratio : 16:9
Frame rate mode : Constant
Frame rate : 29.970 (30000/1001) FPS
Color space : YUV
Chroma subsampling : 4:2:0
Bit depth : 8 bits
Scan type : Progressive
Bits/(Pixel*Frame) : 0.074
Stream size : 1.51 GiB (90%)
Default : Yes
Forced : No
Color range : Limited
Color primaries : BT.709
Transfer characteristics : BT.709
Matrix coefficients : BT.709

NOAH Cross Over 2021

Audio
ID : 2
Format : AAC LC
Format/Info : Advanced Audio
Codec ID : A_AAC-2
Duration : 3 h 7 min
Bit rate : 125 kb/s
Channel(s) : 2 channels
Channel layout : L R
Sampling rate : 48.0 kHz
Frame rate : 46.875 FPS (1024 SPF)
Compression mode : Lossy
Delay relative to video : 2 ms
Stream size : 169 MiB (10%)
Default : Yes
Forced : No

NOAH Cross Over 2021

Complete name : NOAH.2021.08.01.Cross.Over.2021.in.Hiroshima.ENGLISH.1080p.WEB.h264-LATE.mkv
Format : Matroska
Format version : Version 4
File size : 7.60 GiB
Duration : 3 h 7 min
Overall bit rate mode : Variable
Overall bit rate : 5 787 kb/s

Video
ID : 1
Format : AVC
Format/Info : Advanced Video
Duration : 3 h 7 min
Bit rate mode : Variable
Bit rate : 5 403 kb/s
Maximum bit rate : 18.0 Mb/s
Width : 1 920 pixels
Height : 1 080 pixels
Display aspect ratio : 16:9
Frame rate mode : Constant
Frame rate : 29.970 (30000/1001) FPS
Color space : YUV
Chroma subsampling : 4:2:0
Bit depth : 8 bits
Scan type : Progressive
Bits/(Pixel*Frame) : 0.087
Stream size : 7.09 GiB (93%)
Default : Yes
Forced : No
Color range : Limited
Color primaries : BT.709
Transfer characteristics : BT.709
Matrix coefficients : BT.709

NOAH Cross Over 2021

Audio
ID : 2
Format : AAC LC
Codec ID : A_AAC-2
Duration : 3 h 7 min
Bit rate : 384 kb/s
Channel(s) : 2 channels
Channel layout : L R
Sampling rate : 48.0 kHz
Frame rate : 46.875 FPS (1024 SPF)
Compression mode : Lossy
Delay relative to video : 2 ms
Stream size : 513 MiB (7%)
Default : Yes
Forced : No

Complete name : NOAH.2021.08.01.Cross.Over.2021.in.Hiroshima.ENGLISH.720p.WEB.h264-LATE.mkv
Format : Matroska
Format version : Version 4
File size : 3.45 GiB
Duration : 3 h 7 min
Overall bit rate mode : Variable
Overall bit rate : 2 629 kb/s

NOAH Cross Over 2021

Video
ID : 1
Format : AVC
Format/Info : Advanced Video
Duration : 3 h 7 min
Bit rate mode : Variable
Bit rate : 2 437 kb/s
Maximum bit rate : 8 000 kb/s
Width : 1 280 pixels
Height : 720 pixels
Display aspect ratio : 16:9
Frame rate mode : Constant
Frame rate : 29.970 (30000/1001) FPS
Color space : YUV
Chroma subsampling : 4:2:0
Bit depth : 8 bits
Scan type : Progressive
Bits/(Pixel*Frame) : 0.088
Stream size : 3.20 GiB (93%)
Default : Yes
Forced : No
Color range : Limited
Color primaries : BT.709
Transfer characteristics : BT.709
Matrix coefficients : BT.709

Audio
ID : 2
Format : AAC LC
Codec ID : A_AAC-2
Duration : 3 h 7 min
Bit rate : 192 kb/s
Channel(s) : 2 channels
Channel layout : L R
Sampling rate : 48.0 kHz
Frame rate : 46.875 FPS (1024 SPF)
Compression mode : Lossy
Delay relative to video : 2 ms
Stream size : 255 MiB (7%)
Default : Yes
Forced : No

NOAH Cross Over 2021

Complete name : NOAH.2021.08.01.Cross.Over.2021.in.Hiroshima.ENGLISH.WEB.h264-LATE.mkv
Format : Matroska
Format version : Version 4
File size : 1.68 GiB
Duration : 3 h 7 min
Overall bit rate mode : Variable
Overall bit rate : 1 278 kb/s

Video
ID : 1
Format : AVC
Duration : 3 h 7 min
Bit rate mode : Variable
Bit rate : 1 150 kb/s
Maximum bit rate : 4 000 kb/s
Width : 960 pixels
Height : 540 pixels
Display aspect ratio : 16:9
Frame rate mode : Constant
Frame rate : 29.970 (30000/1001) FPS
Color space : YUV
Chroma subsampling : 4:2:0
Bit depth : 8 bits
Scan type : Progressive
Bits/(Pixel*Frame) : 0.074
Stream size : 1.51 GiB (90%)
Default : Yes
Forced : No
Color range : Limited
Color primaries : BT.709
Transfer characteristics : BT.709
Matrix coefficients : BT.709

NOAH Cross Over 2021

Audio
ID : 2
Format : AAC LC
Format/Info : Advanced Audio
Codec ID : A_AAC-2
Duration : 3 h 7 min
Bit rate : 125 kb/s
Channel(s) : 2 channels
Channel layout : L R
Sampling rate : 48.0 kHz
Frame rate : 46.875 FPS (1024 SPF)
Compression mode : Lossy
Delay relative to video : 2 ms
Stream size : 169 MiB (10%)
Default : Yes
Forced : No

NOAH Cross Over 2021

Complete name : NOAH.2021.08.01.Cross.Over.2021.in.Hiroshima.ENGLISH.1080p.WEB.h264-LATE.mkv
Format : Matroska
Format version : Version 4
File size : 7.60 GiB
Duration : 3 h 7 min
Overall bit rate mode : Variable
Overall bit rate : 5 787 kb/s

Video
ID : 1
Format : AVC
Format/Info : Advanced Video
Duration : 3 h 7 min
Bit rate mode : Variable
Bit rate : 5 403 kb/s
Maximum bit rate : 18.0 Mb/s
Width : 1 920 pixels
Height : 1 080 pixels
Display aspect ratio : 16:9
Frame rate mode : Constant
Frame rate : 29.970 (30000/1001) FPS
Color space : YUV
Chroma subsampling : 4:2:0
Bit depth : 8 bits
Scan type : Progressive
Bits/(Pixel*Frame) : 0.087
Stream size : 7.09 GiB (93%)
Default : Yes
Forced : No
Color range : Limited
Color primaries : BT.709
Transfer characteristics : BT.709
Matrix coefficients : BT.709

NOAH Cross Over 2021

Audio
ID : 2
Format : AAC LC
Codec ID : A_AAC-2
Duration : 3 h 7 min
Bit rate : 384 kb/s
Channel(s) : 2 channels
Channel layout : L R
Sampling rate : 48.0 kHz
Frame rate : 46.875 FPS (1024 SPF)
Compression mode : Lossy
Delay relative to video : 2 ms
Stream size : 513 MiB (7%)
Default : Yes
Forced : No

Complete name : NOAH.2021.08.01.Cross.Over.2021.in.Hiroshima.ENGLISH.720p.WEB.h264-LATE.mkv
Format : Matroska
Format version : Version 4
File size : 3.45 GiB
Duration : 3 h 7 min
Overall bit rate mode : Variable
Overall bit rate : 2 629 kb/s

NOAH Cross Over 2021

Video
ID : 1
Format : AVC
Format/Info : Advanced Video
Duration : 3 h 7 min
Bit rate mode : Variable
Bit rate : 2 437 kb/s
Maximum bit rate : 8 000 kb/s
Width : 1 280 pixels
Height : 720 pixels
Display aspect ratio : 16:9
Frame rate mode : Constant
Frame rate : 29.970 (30000/1001) FPS
Color space : YUV
Chroma subsampling : 4:2:0
Bit depth : 8 bits
Scan type : Progressive
Bits/(Pixel*Frame) : 0.088
Stream size : 3.20 GiB (93%)
Default : Yes
Forced : No
Color range : Limited
Color primaries : BT.709
Transfer characteristics : BT.709
Matrix coefficients : BT.709

Audio
ID : 2
Format : AAC LC
Codec ID : A_AAC-2
Duration : 3 h 7 min
Bit rate : 192 kb/s
Channel(s) : 2 channels
Channel layout : L R
Sampling rate : 48.0 kHz
Frame rate : 46.875 FPS (1024 SPF)
Compression mode : Lossy
Delay relative to video : 2 ms
Stream size : 255 MiB (7%)
Default : Yes
Forced : No

NOAH Cross Over 2021

Complete name : NOAH.2021.08.01.Cross.Over.2021.in.Hiroshima.ENGLISH.WEB.h264-LATE.mkv
Format : Matroska
Format version : Version 4
File size : 1.68 GiB
Duration : 3 h 7 min
Overall bit rate mode : Variable
Overall bit rate : 1 278 kb/s

Video
ID : 1
Format : AVC
Duration : 3 h 7 min
Bit rate mode : Variable
Bit rate : 1 150 kb/s
Maximum bit rate : 4 000 kb/s
Width : 960 pixels
Height : 540 pixels
Display aspect ratio : 16:9
Frame rate mode : Constant
Frame rate : 29.970 (30000/1001) FPS
Color space : YUV
Chroma subsampling : 4:2:0
Bit depth : 8 bits
Scan type : Progressive
Bits/(Pixel*Frame) : 0.074
Stream size : 1.51 GiB (90%)
Default : Yes
Forced : No
Color range : Limited
Color primaries : BT.709
Transfer characteristics : BT.709
Matrix coefficients : BT.709

NOAH Cross Over 2021

Audio
ID : 2
Format : AAC LC
Format/Info : Advanced Audio
Codec ID : A_AAC-2
Duration : 3 h 7 min
Bit rate : 125 kb/s
Channel(s) : 2 channels
Channel layout : L R
Sampling rate : 48.0 kHz
Frame rate : 46.875 FPS (1024 SPF)
Compression mode : Lossy
Delay relative to video : 2 ms
Stream size : 169 MiB (10%)
Default : Yes
Forced : No

NOAH Cross Over 2021

Complete name : NOAH.2021.08.01.Cross.Over.2021.in.Hiroshima.ENGLISH.1080p.WEB.h264-LATE.mkv
Format : Matroska
Format version : Version 4
File size : 7.60 GiB
Duration : 3 h 7 min
Overall bit rate mode : Variable
Overall bit rate : 5 787 kb/s

Video
ID : 1
Format : AVC
Format/Info : Advanced Video
Duration : 3 h 7 min
Bit rate mode : Variable
Bit rate : 5 403 kb/s
Maximum bit rate : 18.0 Mb/s
Width : 1 920 pixels
Height : 1 080 pixels
Display aspect ratio : 16:9
Frame rate mode : Constant
Frame rate : 29.970 (30000/1001) FPS
Color space : YUV
Chroma subsampling : 4:2:0
Bit depth : 8 bits
Scan type : Progressive
Bits/(Pixel*Frame) : 0.087
Stream size : 7.09 GiB (93%)
Default : Yes
Forced : No
Color range : Limited
Color primaries : BT.709
Transfer characteristics : BT.709
Matrix coefficients : BT.709

NOAH Cross Over 2021

Audio
ID : 2
Format : AAC LC
Codec ID : A_AAC-2
Duration : 3 h 7 min
Bit rate : 384 kb/s
Channel(s) : 2 channels
Channel layout : L R
Sampling rate : 48.0 kHz
Frame rate : 46.875 FPS (1024 SPF)
Compression mode : Lossy
Delay relative to video : 2 ms
Stream size : 513 MiB (7%)
Default : Yes
Forced : No

Complete name : NOAH.2021.08.01.Cross.Over.2021.in.Hiroshima.ENGLISH.720p.WEB.h264-LATE.mkv
Format : Matroska
Format version : Version 4
File size : 3.45 GiB
Duration : 3 h 7 min
Overall bit rate mode : Variable
Overall bit rate : 2 629 kb/s

NOAH Cross Over 2021

Video
ID : 1
Format : AVC
Format/Info : Advanced Video
Duration : 3 h 7 min
Bit rate mode : Variable
Bit rate : 2 437 kb/s
Maximum bit rate : 8 000 kb/s
Width : 1 280 pixels
Height : 720 pixels
Display aspect ratio : 16:9
Frame rate mode : Constant
Frame rate : 29.970 (30000/1001) FPS
Color space : YUV
Chroma subsampling : 4:2:0
Bit depth : 8 bits
Scan type : Progressive
Bits/(Pixel*Frame) : 0.088
Stream size : 3.20 GiB (93%)
Default : Yes
Forced : No
Color range : Limited
Color primaries : BT.709
Transfer characteristics : BT.709
Matrix coefficients : BT.709

Audio
ID : 2
Format : AAC LC
Codec ID : A_AAC-2
Duration : 3 h 7 min
Bit rate : 192 kb/s
Channel(s) : 2 channels
Channel layout : L R
Sampling rate : 48.0 kHz
Frame rate : 46.875 FPS (1024 SPF)
Compression mode : Lossy
Delay relative to video : 2 ms
Stream size : 255 MiB (7%)
Default : Yes
Forced : No

NOAH Cross Over 2021

Complete name : NOAH.2021.08.01.Cross.Over.2021.in.Hiroshima.ENGLISH.WEB.h264-LATE.mkv
Format : Matroska
Format version : Version 4
File size : 1.68 GiB
Duration : 3 h 7 min
Overall bit rate mode : Variable
Overall bit rate : 1 278 kb/s

Video
ID : 1
Format : AVC
Duration : 3 h 7 min
Bit rate mode : Variable
Bit rate : 1 150 kb/s
Maximum bit rate : 4 000 kb/s
Width : 960 pixels
Height : 540 pixels
Display aspect ratio : 16:9
Frame rate mode : Constant
Frame rate : 29.970 (30000/1001) FPS
Color space : YUV
Chroma subsampling : 4:2:0
Bit depth : 8 bits
Scan type : Progressive
Bits/(Pixel*Frame) : 0.074
Stream size : 1.51 GiB (90%)
Default : Yes
Forced : No
Color range : Limited
Color primaries : BT.709
Transfer characteristics : BT.709
Matrix coefficients : BT.709

NOAH Cross Over 2021

Audio
ID : 2
Format : AAC LC
Format/Info : Advanced Audio
Codec ID : A_AAC-2
Duration : 3 h 7 min
Bit rate : 125 kb/s
Channel(s) : 2 channels
Channel layout : L R
Sampling rate : 48.0 kHz
Frame rate : 46.875 FPS (1024 SPF)
Compression mode : Lossy
Delay relative to video : 2 ms
Stream size : 169 MiB (10%)
Default : Yes
Forced : No

NOAH Cross Over 2021

Complete name : NOAH.2021.08.01.Cross.Over.2021.in.Hiroshima.ENGLISH.1080p.WEB.h264-LATE.mkv
Format : Matroska
Format version : Version 4
File size : 7.60 GiB
Duration : 3 h 7 min
Overall bit rate mode : Variable
Overall bit rate : 5 787 kb/s

Video
ID : 1
Format : AVC
Format/Info : Advanced Video
Duration : 3 h 7 min
Bit rate mode : Variable
Bit rate : 5 403 kb/s
Maximum bit rate : 18.0 Mb/s
Width : 1 920 pixels
Height : 1 080 pixels
Display aspect ratio : 16:9
Frame rate mode : Constant
Frame rate : 29.970 (30000/1001) FPS
Color space : YUV
Chroma subsampling : 4:2:0
Bit depth : 8 bits
Scan type : Progressive
Bits/(Pixel*Frame) : 0.087
Stream size : 7.09 GiB (93%)
Default : Yes
Forced : No
Color range : Limited
Color primaries : BT.709
Transfer characteristics : BT.709
Matrix coefficients : BT.709

NOAH Cross Over 2021

Audio
ID : 2
Format : AAC LC
Codec ID : A_AAC-2
Duration : 3 h 7 min
Bit rate : 384 kb/s
Channel(s) : 2 channels
Channel layout : L R
Sampling rate : 48.0 kHz
Frame rate : 46.875 FPS (1024 SPF)
Compression mode : Lossy
Delay relative to video : 2 ms
Stream size : 513 MiB (7%)
Default : Yes
Forced : No

Complete name : NOAH.2021.08.01.Cross.Over.2021.in.Hiroshima.ENGLISH.720p.WEB.h264-LATE.mkv
Format : Matroska
Format version : Version 4
File size : 3.45 GiB
Duration : 3 h 7 min
Overall bit rate mode : Variable
Overall bit rate : 2 629 kb/s

NOAH Cross Over 2021

Video
ID : 1
Format : AVC
Format/Info : Advanced Video
Duration : 3 h 7 min
Bit rate mode : Variable
Bit rate : 2 437 kb/s
Maximum bit rate : 8 000 kb/s
Width : 1 280 pixels
Height : 720 pixels
Display aspect ratio : 16:9
Frame rate mode : Constant
Frame rate : 29.970 (30000/1001) FPS
Color space : YUV
Chroma subsampling : 4:2:0
Bit depth : 8 bits
Scan type : Progressive
Bits/(Pixel*Frame) : 0.088
Stream size : 3.20 GiB (93%)
Default : Yes
Forced : No
Color range : Limited
Color primaries : BT.709
Transfer characteristics : BT.709
Matrix coefficients : BT.709

Audio
ID : 2
Format : AAC LC
Codec ID : A_AAC-2
Duration : 3 h 7 min
Bit rate : 192 kb/s
Channel(s) : 2 channels
Channel layout : L R
Sampling rate : 48.0 kHz
Frame rate : 46.875 FPS (1024 SPF)
Compression mode : Lossy
Delay relative to video : 2 ms
Stream size : 255 MiB (7%)
Default : Yes
Forced : No

NOAH Cross Over 2021

Complete name : NOAH.2021.08.01.Cross.Over.2021.in.Hiroshima.ENGLISH.WEB.h264-LATE.mkv
Format : Matroska
Format version : Version 4
File size : 1.68 GiB
Duration : 3 h 7 min
Overall bit rate mode : Variable
Overall bit rate : 1 278 kb/s

Video
ID : 1
Format : AVC
Duration : 3 h 7 min
Bit rate mode : Variable
Bit rate : 1 150 kb/s
Maximum bit rate : 4 000 kb/s
Width : 960 pixels
Height : 540 pixels
Display aspect ratio : 16:9
Frame rate mode : Constant
Frame rate : 29.970 (30000/1001) FPS
Color space : YUV
Chroma subsampling : 4:2:0
Bit depth : 8 bits
Scan type : Progressive
Bits/(Pixel*Frame) : 0.074
Stream size : 1.51 GiB (90%)
Default : Yes
Forced : No
Color range : Limited
Color primaries : BT.709
Transfer characteristics : BT.709
Matrix coefficients : BT.709

NOAH Cross Over 2021

Audio
ID : 2
Format : AAC LC
Format/Info : Advanced Audio
Codec ID : A_AAC-2
Duration : 3 h 7 min
Bit rate : 125 kb/s
Channel(s) : 2 channels
Channel layout : L R
Sampling rate : 48.0 kHz
Frame rate : 46.875 FPS (1024 SPF)
Compression mode : Lossy
Delay relative to video : 2 ms
Stream size : 169 MiB (10%)
Default : Yes
Forced : No

NOAH Cross Over 2021

Complete name : NOAH.2021.08.01.Cross.Over.2021.in.Hiroshima.ENGLISH.1080p.WEB.h264-LATE.mkv
Format : Matroska
Format version : Version 4
File size : 7.60 GiB
Duration : 3 h 7 min
Overall bit rate mode : Variable
Overall bit rate : 5 787 kb/s

Video
ID : 1
Format : AVC
Format/Info : Advanced Video
Duration : 3 h 7 min
Bit rate mode : Variable
Bit rate : 5 403 kb/s
Maximum bit rate : 18.0 Mb/s
Width : 1 920 pixels
Height : 1 080 pixels
Display aspect ratio : 16:9
Frame rate mode : Constant
Frame rate : 29.970 (30000/1001) FPS
Color space : YUV
Chroma subsampling : 4:2:0
Bit depth : 8 bits
Scan type : Progressive
Bits/(Pixel*Frame) : 0.087
Stream size : 7.09 GiB (93%)
Default : Yes
Forced : No
Color range : Limited
Color primaries : BT.709
Transfer characteristics : BT.709
Matrix coefficients : BT.709

NOAH Cross Over 2021

Audio
ID : 2
Format : AAC LC
Codec ID : A_AAC-2
Duration : 3 h 7 min
Bit rate : 384 kb/s
Channel(s) : 2 channels
Channel layout : L R
Sampling rate : 48.0 kHz
Frame rate : 46.875 FPS (1024 SPF)
Compression mode : Lossy
Delay relative to video : 2 ms
Stream size : 513 MiB (7%)
Default : Yes
Forced : No

Complete name : NOAH.2021.08.01.Cross.Over.2021.in.Hiroshima.ENGLISH.720p.WEB.h264-LATE.mkv
Format : Matroska
Format version : Version 4
File size : 3.45 GiB
Duration : 3 h 7 min
Overall bit rate mode : Variable
Overall bit rate : 2 629 kb/s

NOAH Cross Over 2021

Video
ID : 1
Format : AVC
Format/Info : Advanced Video
Duration : 3 h 7 min
Bit rate mode : Variable
Bit rate : 2 437 kb/s
Maximum bit rate : 8 000 kb/s
Width : 1 280 pixels
Height : 720 pixels
Display aspect ratio : 16:9
Frame rate mode : Constant
Frame rate : 29.970 (30000/1001) FPS
Color space : YUV
Chroma subsampling : 4:2:0
Bit depth : 8 bits
Scan type : Progressive
Bits/(Pixel*Frame) : 0.088
Stream size : 3.20 GiB (93%)
Default : Yes
Forced : No
Color range : Limited
Color primaries : BT.709
Transfer characteristics : BT.709
Matrix coefficients : BT.709

Audio
ID : 2
Format : AAC LC
Codec ID : A_AAC-2
Duration : 3 h 7 min
Bit rate : 192 kb/s
Channel(s) : 2 channels
Channel layout : L R
Sampling rate : 48.0 kHz
Frame rate : 46.875 FPS (1024 SPF)
Compression mode : Lossy
Delay relative to video : 2 ms
Stream size : 255 MiB (7%)
Default : Yes
Forced : No

NOAH Cross Over 2021

Complete name : NOAH.2021.08.01.Cross.Over.2021.in.Hiroshima.ENGLISH.WEB.h264-LATE.mkv
Format : Matroska
Format version : Version 4
File size : 1.68 GiB
Duration : 3 h 7 min
Overall bit rate mode : Variable
Overall bit rate : 1 278 kb/s

Video
ID : 1
Format : AVC
Duration : 3 h 7 min
Bit rate mode : Variable
Bit rate : 1 150 kb/s
Maximum bit rate : 4 000 kb/s
Width : 960 pixels
Height : 540 pixels
Display aspect ratio : 16:9
Frame rate mode : Constant
Frame rate : 29.970 (30000/1001) FPS
Color space : YUV
Chroma subsampling : 4:2:0
Bit depth : 8 bits
Scan type : Progressive
Bits/(Pixel*Frame) : 0.074
Stream size : 1.51 GiB (90%)
Default : Yes
Forced : No
Color range : Limited
Color primaries : BT.709
Transfer characteristics : BT.709
Matrix coefficients : BT.709

NOAH Cross Over 2021

Audio
ID : 2
Format : AAC LC
Format/Info : Advanced Audio
Codec ID : A_AAC-2
Duration : 3 h 7 min
Bit rate : 125 kb/s
Channel(s) : 2 channels
Channel layout : L R
Sampling rate : 48.0 kHz
Frame rate : 46.875 FPS (1024 SPF)
Compression mode : Lossy
Delay relative to video : 2 ms
Stream size : 169 MiB (10%)
Default : Yes
Forced : No

NOAH Cross Over 2021

 

[collapse]

 

 

https://dx-tv.com/

You May Also Like

Leave a Reply

Your email address will not be published. Required fields are marked *

This site uses Akismet to reduce spam. Learn how your comment data is processed.