Stardom 5STAR Grand Prix 2021 08 01 Day 2 Online Free

Stardom 5STAR Grand Prix 2021 08 01 Day 2 Online Free Replay DX-TV

Contents show

Stardom 5STAR Grand Prix 2021

 Stardom 5STAR Grand Prix 2021

 

 

 

Download Links with premium High Speed


 

Dopapk

 

 

Show Links

 

 

 

 

[collapse]

 

 

Nitroflare

 

 

Show Links

 

http://shrt10.com/wXy8lbMG

 

[collapse]

 

 

Rapidgator

 

 

Show Links

 

http://shrt10.com/GlCzrjk

 

[collapse]

 

 

Uploaded

 

 

Show Links

 

http://shrt10.com/aEpDcPNqt

 

[collapse]

 

 

Watch online

 

Server 1

 

 

 

 

Stardom 5STAR Grand Prix 2021

 

 

 

 

Server-2

 

 

 

 

watch now

 

 

 

|Server-3

 

 

 

 

watch now

 

 

Uploaded By Site DX-TV.com

 

 

Show Info This Show

Stardom 5STAR Grand Prix 2021

 

Complete name : 2021.08.01.Stardom.5STAR.Grand.Prix.2021.Day2.(Samurai.TV).mp4
Format : MPEG-4
Format profile : Base Media
Codec ID : isom
File size : 3.12 GiB
Duration : 2 h 39 min
Overall bit rate : 2 812 kb/s

Video
ID : 1
Format : AVC
Format/Info : Advanced Video
Duration : 2 h 39 min
Bit rate : 2 608 kb/s
Width : 1 280 pixels
Height : 720 pixels
Display aspect ratio : 16:9
Frame rate mode : Constant
Frame rate : 60.000 FPS
Color space : YUV
Chroma subsampling : 4:2:0
Bit depth : 8 bits
Scan type : Progressive
Bits/(Pixel*Frame) : 0.047
Stream size : 2.90 GiB (93%)
Color primaries : BT.709
Transfer characteristics : BT.709
Matrix coefficients : BT.709
Codec configuration box : avcC

Stardom 5STAR Grand Prix 2021

Audio
ID : 2
Format : AAC LC
Format/Info : Advanced Audio
Codec ID : mp4a-40-2
Duration : 2 h 39 min
Bit rate mode : Constant
Bit rate : 192 kb/s
Channel(s) : 2 channels
Channel layout : L R
Sampling rate : 48.0 kHz
Frame rate : 46.875 FPS
Compression mode : Lossy
Stream size : 218 MiB (7%)
Default : Yes
Alternate group : 1

Stardom 5STAR Grand Prix 2021

Stardom 5-Star Grand Prix 2021 kicked off on Saturday in Yokohama, Kanagawa, Japan. Full results are below (h/t Frightful):

* Oedo Tai (Saki Kashima, Konami, Ruaka & Rina) defeated Lady C, Hanan, AZM & Hina

* 5-Star Grand Prix – Red Stars Match: Mina Shirakawa defeated Fukigen Death

* 5-Star Grand Prix – Red Stars Match: Koguma defeated Natsupoi

* 5-Star Grand Prix – Red Stars Match: Giulia defeated Starlight Kid

* 5-Star Grand Prix – Blue Stars Match: Unagi Sayaka defeated Tam Nakano

* 5-Star Grand Prix – Blue Stars Match: Syuri defeated Saya Kamitani.

* 5-Star Grand Prix – Red Stars Match: Momo Watanabe defeated Mayu Iwatani

* 5-Star Grand Prix – Blue Stars Match: Maika defeated Utami Hayashishita

Stardom 5STAR Grand Prix 2021

Complete name : 2021.08.01.Stardom.5STAR.Grand.Prix.2021.Day2.(Samurai.TV).mp4
Format : MPEG-4
Format profile : Base Media
Codec ID : isom
File size : 3.12 GiB
Duration : 2 h 39 min
Overall bit rate : 2 812 kb/s

Video
ID : 1
Format : AVC
Format/Info : Advanced Video
Duration : 2 h 39 min
Bit rate : 2 608 kb/s
Width : 1 280 pixels
Height : 720 pixels
Display aspect ratio : 16:9
Frame rate mode : Constant
Frame rate : 60.000 FPS
Color space : YUV
Chroma subsampling : 4:2:0
Bit depth : 8 bits
Scan type : Progressive
Bits/(Pixel*Frame) : 0.047
Stream size : 2.90 GiB (93%)
Color primaries : BT.709
Transfer characteristics : BT.709
Matrix coefficients : BT.709
Codec configuration box : avcC

Stardom 5STAR Grand Prix 2021

Audio
ID : 2
Format : AAC LC
Format/Info : Advanced Audio
Codec ID : mp4a-40-2
Duration : 2 h 39 min
Bit rate mode : Constant
Bit rate : 192 kb/s
Channel(s) : 2 channels
Channel layout : L R
Sampling rate : 48.0 kHz
Frame rate : 46.875 FPS
Compression mode : Lossy
Stream size : 218 MiB (7%)
Default : Yes
Alternate group : 1

Stardom 5STAR Grand Prix 2021

Stardom 5-Star Grand Prix 2021 kicked off on Saturday in Yokohama, Kanagawa, Japan. Full results are below (h/t Frightful):

* Oedo Tai (Saki Kashima, Konami, Ruaka & Rina) defeated Lady C, Hanan, AZM & Hina

* 5-Star Grand Prix – Red Stars Match: Mina Shirakawa defeated Fukigen Death

* 5-Star Grand Prix – Red Stars Match: Koguma defeated Natsupoi

* 5-Star Grand Prix – Red Stars Match: Giulia defeated Starlight Kid

* 5-Star Grand Prix – Blue Stars Match: Unagi Sayaka defeated Tam Nakano

* 5-Star Grand Prix – Blue Stars Match: Syuri defeated Saya Kamitani.

* 5-Star Grand Prix – Red Stars Match: Momo Watanabe defeated Mayu Iwatani

* 5-Star Grand Prix – Blue Stars Match: Maika defeated Utami Hayashishita

Stardom 5STAR Grand Prix 2021

Complete name : 2021.08.01.Stardom.5STAR.Grand.Prix.2021.Day2.(Samurai.TV).mp4
Format : MPEG-4
Format profile : Base Media
Codec ID : isom
File size : 3.12 GiB
Duration : 2 h 39 min
Overall bit rate : 2 812 kb/s

Video
ID : 1
Format : AVC
Format/Info : Advanced Video
Duration : 2 h 39 min
Bit rate : 2 608 kb/s
Width : 1 280 pixels
Height : 720 pixels
Display aspect ratio : 16:9
Frame rate mode : Constant
Frame rate : 60.000 FPS
Color space : YUV
Chroma subsampling : 4:2:0
Bit depth : 8 bits
Scan type : Progressive
Bits/(Pixel*Frame) : 0.047
Stream size : 2.90 GiB (93%)
Color primaries : BT.709
Transfer characteristics : BT.709
Matrix coefficients : BT.709
Codec configuration box : avcC

Stardom 5STAR Grand Prix 2021

Audio
ID : 2
Format : AAC LC
Format/Info : Advanced Audio
Codec ID : mp4a-40-2
Duration : 2 h 39 min
Bit rate mode : Constant
Bit rate : 192 kb/s
Channel(s) : 2 channels
Channel layout : L R
Sampling rate : 48.0 kHz
Frame rate : 46.875 FPS
Compression mode : Lossy
Stream size : 218 MiB (7%)
Default : Yes
Alternate group : 1

Stardom 5STAR Grand Prix 2021

Stardom 5-Star Grand Prix 2021 kicked off on Saturday in Yokohama, Kanagawa, Japan. Full results are below (h/t Frightful):

* Oedo Tai (Saki Kashima, Konami, Ruaka & Rina) defeated Lady C, Hanan, AZM & Hina

* 5-Star Grand Prix – Red Stars Match: Mina Shirakawa defeated Fukigen Death

* 5-Star Grand Prix – Red Stars Match: Koguma defeated Natsupoi

* 5-Star Grand Prix – Red Stars Match: Giulia defeated Starlight Kid

* 5-Star Grand Prix – Blue Stars Match: Unagi Sayaka defeated Tam Nakano

* 5-Star Grand Prix – Blue Stars Match: Syuri defeated Saya Kamitani.

* 5-Star Grand Prix – Red Stars Match: Momo Watanabe defeated Mayu Iwatani

* 5-Star Grand Prix – Blue Stars Match: Maika defeated Utami Hayashishita

Stardom 5STAR Grand Prix 2021

Complete name : 2021.08.01.Stardom.5STAR.Grand.Prix.2021.Day2.(Samurai.TV).mp4
Format : MPEG-4
Format profile : Base Media
Codec ID : isom
File size : 3.12 GiB
Duration : 2 h 39 min
Overall bit rate : 2 812 kb/s

Video
ID : 1
Format : AVC
Format/Info : Advanced Video
Duration : 2 h 39 min
Bit rate : 2 608 kb/s
Width : 1 280 pixels
Height : 720 pixels
Display aspect ratio : 16:9
Frame rate mode : Constant
Frame rate : 60.000 FPS
Color space : YUV
Chroma subsampling : 4:2:0
Bit depth : 8 bits
Scan type : Progressive
Bits/(Pixel*Frame) : 0.047
Stream size : 2.90 GiB (93%)
Color primaries : BT.709
Transfer characteristics : BT.709
Matrix coefficients : BT.709
Codec configuration box : avcC

Stardom 5STAR Grand Prix 2021

Audio
ID : 2
Format : AAC LC
Format/Info : Advanced Audio
Codec ID : mp4a-40-2
Duration : 2 h 39 min
Bit rate mode : Constant
Bit rate : 192 kb/s
Channel(s) : 2 channels
Channel layout : L R
Sampling rate : 48.0 kHz
Frame rate : 46.875 FPS
Compression mode : Lossy
Stream size : 218 MiB (7%)
Default : Yes
Alternate group : 1

Stardom 5STAR Grand Prix 2021

Stardom 5-Star Grand Prix 2021 kicked off on Saturday in Yokohama, Kanagawa, Japan. Full results are below (h/t Frightful):

* Oedo Tai (Saki Kashima, Konami, Ruaka & Rina) defeated Lady C, Hanan, AZM & Hina

* 5-Star Grand Prix – Red Stars Match: Mina Shirakawa defeated Fukigen Death

* 5-Star Grand Prix – Red Stars Match: Koguma defeated Natsupoi

* 5-Star Grand Prix – Red Stars Match: Giulia defeated Starlight Kid

* 5-Star Grand Prix – Blue Stars Match: Unagi Sayaka defeated Tam Nakano

* 5-Star Grand Prix – Blue Stars Match: Syuri defeated Saya Kamitani.

* 5-Star Grand Prix – Red Stars Match: Momo Watanabe defeated Mayu Iwatani

* 5-Star Grand Prix – Blue Stars Match: Maika defeated Utami Hayashishita

Stardom 5STAR Grand Prix 2021

Complete name : 2021.08.01.Stardom.5STAR.Grand.Prix.2021.Day2.(Samurai.TV).mp4
Format : MPEG-4
Format profile : Base Media
Codec ID : isom
File size : 3.12 GiB
Duration : 2 h 39 min
Overall bit rate : 2 812 kb/s

Video
ID : 1
Format : AVC
Format/Info : Advanced Video
Duration : 2 h 39 min
Bit rate : 2 608 kb/s
Width : 1 280 pixels
Height : 720 pixels
Display aspect ratio : 16:9
Frame rate mode : Constant
Frame rate : 60.000 FPS
Color space : YUV
Chroma subsampling : 4:2:0
Bit depth : 8 bits
Scan type : Progressive
Bits/(Pixel*Frame) : 0.047
Stream size : 2.90 GiB (93%)
Color primaries : BT.709
Transfer characteristics : BT.709
Matrix coefficients : BT.709
Codec configuration box : avcC

Stardom 5STAR Grand Prix 2021

Audio
ID : 2
Format : AAC LC
Format/Info : Advanced Audio
Codec ID : mp4a-40-2
Duration : 2 h 39 min
Bit rate mode : Constant
Bit rate : 192 kb/s
Channel(s) : 2 channels
Channel layout : L R
Sampling rate : 48.0 kHz
Frame rate : 46.875 FPS
Compression mode : Lossy
Stream size : 218 MiB (7%)
Default : Yes
Alternate group : 1

Stardom 5STAR Grand Prix 2021

Stardom 5-Star Grand Prix 2021 kicked off on Saturday in Yokohama, Kanagawa, Japan. Full results are below (h/t Frightful):

* Oedo Tai (Saki Kashima, Konami, Ruaka & Rina) defeated Lady C, Hanan, AZM & Hina

* 5-Star Grand Prix – Red Stars Match: Mina Shirakawa defeated Fukigen Death

* 5-Star Grand Prix – Red Stars Match: Koguma defeated Natsupoi

* 5-Star Grand Prix – Red Stars Match: Giulia defeated Starlight Kid

* 5-Star Grand Prix – Blue Stars Match: Unagi Sayaka defeated Tam Nakano

* 5-Star Grand Prix – Blue Stars Match: Syuri defeated Saya Kamitani.

* 5-Star Grand Prix – Red Stars Match: Momo Watanabe defeated Mayu Iwatani

* 5-Star Grand Prix – Blue Stars Match: Maika defeated Utami Hayashishita

Stardom 5STAR Grand Prix 2021

Complete name : 2021.08.01.Stardom.5STAR.Grand.Prix.2021.Day2.(Samurai.TV).mp4
Format : MPEG-4
Format profile : Base Media
Codec ID : isom
File size : 3.12 GiB
Duration : 2 h 39 min
Overall bit rate : 2 812 kb/s

Video
ID : 1
Format : AVC
Format/Info : Advanced Video
Duration : 2 h 39 min
Bit rate : 2 608 kb/s
Width : 1 280 pixels
Height : 720 pixels
Display aspect ratio : 16:9
Frame rate mode : Constant
Frame rate : 60.000 FPS
Color space : YUV
Chroma subsampling : 4:2:0
Bit depth : 8 bits
Scan type : Progressive
Bits/(Pixel*Frame) : 0.047
Stream size : 2.90 GiB (93%)
Color primaries : BT.709
Transfer characteristics : BT.709
Matrix coefficients : BT.709
Codec configuration box : avcC

Stardom 5STAR Grand Prix 2021

Audio
ID : 2
Format : AAC LC
Format/Info : Advanced Audio
Codec ID : mp4a-40-2
Duration : 2 h 39 min
Bit rate mode : Constant
Bit rate : 192 kb/s
Channel(s) : 2 channels
Channel layout : L R
Sampling rate : 48.0 kHz
Frame rate : 46.875 FPS
Compression mode : Lossy
Stream size : 218 MiB (7%)
Default : Yes
Alternate group : 1

Stardom 5STAR Grand Prix 2021

Stardom 5-Star Grand Prix 2021 kicked off on Saturday in Yokohama, Kanagawa, Japan. Full results are below (h/t Frightful):

* Oedo Tai (Saki Kashima, Konami, Ruaka & Rina) defeated Lady C, Hanan, AZM & Hina

* 5-Star Grand Prix – Red Stars Match: Mina Shirakawa defeated Fukigen Death

* 5-Star Grand Prix – Red Stars Match: Koguma defeated Natsupoi

* 5-Star Grand Prix – Red Stars Match: Giulia defeated Starlight Kid

* 5-Star Grand Prix – Blue Stars Match: Unagi Sayaka defeated Tam Nakano

* 5-Star Grand Prix – Blue Stars Match: Syuri defeated Saya Kamitani.

* 5-Star Grand Prix – Red Stars Match: Momo Watanabe defeated Mayu Iwatani

* 5-Star Grand Prix – Blue Stars Match: Maika defeated Utami Hayashishita

Stardom 5STAR Grand Prix 2021

Complete name : 2021.08.01.Stardom.5STAR.Grand.Prix.2021.Day2.(Samurai.TV).mp4
Format : MPEG-4
Format profile : Base Media
Codec ID : isom
File size : 3.12 GiB
Duration : 2 h 39 min
Overall bit rate : 2 812 kb/s

Video
ID : 1
Format : AVC
Format/Info : Advanced Video
Duration : 2 h 39 min
Bit rate : 2 608 kb/s
Width : 1 280 pixels
Height : 720 pixels
Display aspect ratio : 16:9
Frame rate mode : Constant
Frame rate : 60.000 FPS
Color space : YUV
Chroma subsampling : 4:2:0
Bit depth : 8 bits
Scan type : Progressive
Bits/(Pixel*Frame) : 0.047
Stream size : 2.90 GiB (93%)
Color primaries : BT.709
Transfer characteristics : BT.709
Matrix coefficients : BT.709
Codec configuration box : avcC

Stardom 5STAR Grand Prix 2021

Audio
ID : 2
Format : AAC LC
Format/Info : Advanced Audio
Codec ID : mp4a-40-2
Duration : 2 h 39 min
Bit rate mode : Constant
Bit rate : 192 kb/s
Channel(s) : 2 channels
Channel layout : L R
Sampling rate : 48.0 kHz
Frame rate : 46.875 FPS
Compression mode : Lossy
Stream size : 218 MiB (7%)
Default : Yes
Alternate group : 1

Stardom 5STAR Grand Prix 2021

Stardom 5-Star Grand Prix 2021 kicked off on Saturday in Yokohama, Kanagawa, Japan. Full results are below (h/t Frightful):

* Oedo Tai (Saki Kashima, Konami, Ruaka & Rina) defeated Lady C, Hanan, AZM & Hina

* 5-Star Grand Prix – Red Stars Match: Mina Shirakawa defeated Fukigen Death

* 5-Star Grand Prix – Red Stars Match: Koguma defeated Natsupoi

* 5-Star Grand Prix – Red Stars Match: Giulia defeated Starlight Kid

* 5-Star Grand Prix – Blue Stars Match: Unagi Sayaka defeated Tam Nakano

* 5-Star Grand Prix – Blue Stars Match: Syuri defeated Saya Kamitani.

* 5-Star Grand Prix – Red Stars Match: Momo Watanabe defeated Mayu Iwatani

* 5-Star Grand Prix – Blue Stars Match: Maika defeated Utami Hayashishita

Stardom 5STAR Grand Prix 2021

Complete name : 2021.08.01.Stardom.5STAR.Grand.Prix.2021.Day2.(Samurai.TV).mp4
Format : MPEG-4
Format profile : Base Media
Codec ID : isom
File size : 3.12 GiB
Duration : 2 h 39 min
Overall bit rate : 2 812 kb/s

Video
ID : 1
Format : AVC
Format/Info : Advanced Video
Duration : 2 h 39 min
Bit rate : 2 608 kb/s
Width : 1 280 pixels
Height : 720 pixels
Display aspect ratio : 16:9
Frame rate mode : Constant
Frame rate : 60.000 FPS
Color space : YUV
Chroma subsampling : 4:2:0
Bit depth : 8 bits
Scan type : Progressive
Bits/(Pixel*Frame) : 0.047
Stream size : 2.90 GiB (93%)
Color primaries : BT.709
Transfer characteristics : BT.709
Matrix coefficients : BT.709
Codec configuration box : avcC

Stardom 5STAR Grand Prix 2021

Audio
ID : 2
Format : AAC LC
Format/Info : Advanced Audio
Codec ID : mp4a-40-2
Duration : 2 h 39 min
Bit rate mode : Constant
Bit rate : 192 kb/s
Channel(s) : 2 channels
Channel layout : L R
Sampling rate : 48.0 kHz
Frame rate : 46.875 FPS
Compression mode : Lossy
Stream size : 218 MiB (7%)
Default : Yes
Alternate group : 1

Stardom 5STAR Grand Prix 2021

Stardom 5-Star Grand Prix 2021 kicked off on Saturday in Yokohama, Kanagawa, Japan. Full results are below (h/t Frightful):

* Oedo Tai (Saki Kashima, Konami, Ruaka & Rina) defeated Lady C, Hanan, AZM & Hina

* 5-Star Grand Prix – Red Stars Match: Mina Shirakawa defeated Fukigen Death

* 5-Star Grand Prix – Red Stars Match: Koguma defeated Natsupoi

* 5-Star Grand Prix – Red Stars Match: Giulia defeated Starlight Kid

* 5-Star Grand Prix – Blue Stars Match: Unagi Sayaka defeated Tam Nakano

* 5-Star Grand Prix – Blue Stars Match: Syuri defeated Saya Kamitani.

* 5-Star Grand Prix – Red Stars Match: Momo Watanabe defeated Mayu Iwatani

* 5-Star Grand Prix – Blue Stars Match: Maika defeated Utami Hayashishita

Stardom 5STAR Grand Prix 2021

Complete name : 2021.08.01.Stardom.5STAR.Grand.Prix.2021.Day2.(Samurai.TV).mp4
Format : MPEG-4
Format profile : Base Media
Codec ID : isom
File size : 3.12 GiB
Duration : 2 h 39 min
Overall bit rate : 2 812 kb/s

Video
ID : 1
Format : AVC
Format/Info : Advanced Video
Duration : 2 h 39 min
Bit rate : 2 608 kb/s
Width : 1 280 pixels
Height : 720 pixels
Display aspect ratio : 16:9
Frame rate mode : Constant
Frame rate : 60.000 FPS
Color space : YUV
Chroma subsampling : 4:2:0
Bit depth : 8 bits
Scan type : Progressive
Bits/(Pixel*Frame) : 0.047
Stream size : 2.90 GiB (93%)
Color primaries : BT.709
Transfer characteristics : BT.709
Matrix coefficients : BT.709
Codec configuration box : avcC

Stardom 5STAR Grand Prix 2021

Audio
ID : 2
Format : AAC LC
Format/Info : Advanced Audio
Codec ID : mp4a-40-2
Duration : 2 h 39 min
Bit rate mode : Constant
Bit rate : 192 kb/s
Channel(s) : 2 channels
Channel layout : L R
Sampling rate : 48.0 kHz
Frame rate : 46.875 FPS
Compression mode : Lossy
Stream size : 218 MiB (7%)
Default : Yes
Alternate group : 1

Stardom 5STAR Grand Prix 2021

Stardom 5-Star Grand Prix 2021 kicked off on Saturday in Yokohama, Kanagawa, Japan. Full results are below (h/t Frightful):

* Oedo Tai (Saki Kashima, Konami, Ruaka & Rina) defeated Lady C, Hanan, AZM & Hina

* 5-Star Grand Prix – Red Stars Match: Mina Shirakawa defeated Fukigen Death

* 5-Star Grand Prix – Red Stars Match: Koguma defeated Natsupoi

* 5-Star Grand Prix – Red Stars Match: Giulia defeated Starlight Kid

* 5-Star Grand Prix – Blue Stars Match: Unagi Sayaka defeated Tam Nakano

* 5-Star Grand Prix – Blue Stars Match: Syuri defeated Saya Kamitani.

* 5-Star Grand Prix – Red Stars Match: Momo Watanabe defeated Mayu Iwatani

* 5-Star Grand Prix – Blue Stars Match: Maika defeated Utami Hayashishita

Stardom 5STAR Grand Prix 2021

Complete name : 2021.08.01.Stardom.5STAR.Grand.Prix.2021.Day2.(Samurai.TV).mp4
Format : MPEG-4
Format profile : Base Media
Codec ID : isom
File size : 3.12 GiB
Duration : 2 h 39 min
Overall bit rate : 2 812 kb/s

Video
ID : 1
Format : AVC
Format/Info : Advanced Video
Duration : 2 h 39 min
Bit rate : 2 608 kb/s
Width : 1 280 pixels
Height : 720 pixels
Display aspect ratio : 16:9
Frame rate mode : Constant
Frame rate : 60.000 FPS
Color space : YUV
Chroma subsampling : 4:2:0
Bit depth : 8 bits
Scan type : Progressive
Bits/(Pixel*Frame) : 0.047
Stream size : 2.90 GiB (93%)
Color primaries : BT.709
Transfer characteristics : BT.709
Matrix coefficients : BT.709
Codec configuration box : avcC

Stardom 5STAR Grand Prix 2021

Audio
ID : 2
Format : AAC LC
Format/Info : Advanced Audio
Codec ID : mp4a-40-2
Duration : 2 h 39 min
Bit rate mode : Constant
Bit rate : 192 kb/s
Channel(s) : 2 channels
Channel layout : L R
Sampling rate : 48.0 kHz
Frame rate : 46.875 FPS
Compression mode : Lossy
Stream size : 218 MiB (7%)
Default : Yes
Alternate group : 1

Stardom 5STAR Grand Prix 2021

Stardom 5-Star Grand Prix 2021 kicked off on Saturday in Yokohama, Kanagawa, Japan. Full results are below (h/t Frightful):

* Oedo Tai (Saki Kashima, Konami, Ruaka & Rina) defeated Lady C, Hanan, AZM & Hina

* 5-Star Grand Prix – Red Stars Match: Mina Shirakawa defeated Fukigen Death

* 5-Star Grand Prix – Red Stars Match: Koguma defeated Natsupoi

* 5-Star Grand Prix – Red Stars Match: Giulia defeated Starlight Kid

* 5-Star Grand Prix – Blue Stars Match: Unagi Sayaka defeated Tam Nakano

* 5-Star Grand Prix – Blue Stars Match: Syuri defeated Saya Kamitani.

* 5-Star Grand Prix – Red Stars Match: Momo Watanabe defeated Mayu Iwatani

* 5-Star Grand Prix – Blue Stars Match: Maika defeated Utami Hayashishita

Stardom 5STAR Grand Prix 2021

Complete name : 2021.08.01.Stardom.5STAR.Grand.Prix.2021.Day2.(Samurai.TV).mp4
Format : MPEG-4
Format profile : Base Media
Codec ID : isom
File size : 3.12 GiB
Duration : 2 h 39 min
Overall bit rate : 2 812 kb/s

Video
ID : 1
Format : AVC
Format/Info : Advanced Video
Duration : 2 h 39 min
Bit rate : 2 608 kb/s
Width : 1 280 pixels
Height : 720 pixels
Display aspect ratio : 16:9
Frame rate mode : Constant
Frame rate : 60.000 FPS
Color space : YUV
Chroma subsampling : 4:2:0
Bit depth : 8 bits
Scan type : Progressive
Bits/(Pixel*Frame) : 0.047
Stream size : 2.90 GiB (93%)
Color primaries : BT.709
Transfer characteristics : BT.709
Matrix coefficients : BT.709
Codec configuration box : avcC

Stardom 5STAR Grand Prix 2021

Audio
ID : 2
Format : AAC LC
Format/Info : Advanced Audio
Codec ID : mp4a-40-2
Duration : 2 h 39 min
Bit rate mode : Constant
Bit rate : 192 kb/s
Channel(s) : 2 channels
Channel layout : L R
Sampling rate : 48.0 kHz
Frame rate : 46.875 FPS
Compression mode : Lossy
Stream size : 218 MiB (7%)
Default : Yes
Alternate group : 1

Stardom 5STAR Grand Prix 2021

Stardom 5-Star Grand Prix 2021 kicked off on Saturday in Yokohama, Kanagawa, Japan. Full results are below (h/t Frightful):

* Oedo Tai (Saki Kashima, Konami, Ruaka & Rina) defeated Lady C, Hanan, AZM & Hina

* 5-Star Grand Prix – Red Stars Match: Mina Shirakawa defeated Fukigen Death

* 5-Star Grand Prix – Red Stars Match: Koguma defeated Natsupoi

* 5-Star Grand Prix – Red Stars Match: Giulia defeated Starlight Kid

* 5-Star Grand Prix – Blue Stars Match: Unagi Sayaka defeated Tam Nakano

* 5-Star Grand Prix – Blue Stars Match: Syuri defeated Saya Kamitani.

* 5-Star Grand Prix – Red Stars Match: Momo Watanabe defeated Mayu Iwatani

* 5-Star Grand Prix – Blue Stars Match: Maika defeated Utami Hayashishita

Stardom 5STAR Grand Prix 2021

Complete name : 2021.08.01.Stardom.5STAR.Grand.Prix.2021.Day2.(Samurai.TV).mp4
Format : MPEG-4
Format profile : Base Media
Codec ID : isom
File size : 3.12 GiB
Duration : 2 h 39 min
Overall bit rate : 2 812 kb/s

Video
ID : 1
Format : AVC
Format/Info : Advanced Video
Duration : 2 h 39 min
Bit rate : 2 608 kb/s
Width : 1 280 pixels
Height : 720 pixels
Display aspect ratio : 16:9
Frame rate mode : Constant
Frame rate : 60.000 FPS
Color space : YUV
Chroma subsampling : 4:2:0
Bit depth : 8 bits
Scan type : Progressive
Bits/(Pixel*Frame) : 0.047
Stream size : 2.90 GiB (93%)
Color primaries : BT.709
Transfer characteristics : BT.709
Matrix coefficients : BT.709
Codec configuration box : avcC

Stardom 5STAR Grand Prix 2021

Audio
ID : 2
Format : AAC LC
Format/Info : Advanced Audio
Codec ID : mp4a-40-2
Duration : 2 h 39 min
Bit rate mode : Constant
Bit rate : 192 kb/s
Channel(s) : 2 channels
Channel layout : L R
Sampling rate : 48.0 kHz
Frame rate : 46.875 FPS
Compression mode : Lossy
Stream size : 218 MiB (7%)
Default : Yes
Alternate group : 1

Stardom 5STAR Grand Prix 2021

Stardom 5-Star Grand Prix 2021 kicked off on Saturday in Yokohama, Kanagawa, Japan. Full results are below (h/t Frightful):

* Oedo Tai (Saki Kashima, Konami, Ruaka & Rina) defeated Lady C, Hanan, AZM & Hina

* 5-Star Grand Prix – Red Stars Match: Mina Shirakawa defeated Fukigen Death

* 5-Star Grand Prix – Red Stars Match: Koguma defeated Natsupoi

* 5-Star Grand Prix – Red Stars Match: Giulia defeated Starlight Kid

* 5-Star Grand Prix – Blue Stars Match: Unagi Sayaka defeated Tam Nakano

* 5-Star Grand Prix – Blue Stars Match: Syuri defeated Saya Kamitani.

* 5-Star Grand Prix – Red Stars Match: Momo Watanabe defeated Mayu Iwatani

* 5-Star Grand Prix – Blue Stars Match: Maika defeated Utami Hayashishita

Stardom 5STAR Grand Prix 2021

Complete name : 2021.08.01.Stardom.5STAR.Grand.Prix.2021.Day2.(Samurai.TV).mp4
Format : MPEG-4
Format profile : Base Media
Codec ID : isom
File size : 3.12 GiB
Duration : 2 h 39 min
Overall bit rate : 2 812 kb/s

Video
ID : 1
Format : AVC
Format/Info : Advanced Video
Duration : 2 h 39 min
Bit rate : 2 608 kb/s
Width : 1 280 pixels
Height : 720 pixels
Display aspect ratio : 16:9
Frame rate mode : Constant
Frame rate : 60.000 FPS
Color space : YUV
Chroma subsampling : 4:2:0
Bit depth : 8 bits
Scan type : Progressive
Bits/(Pixel*Frame) : 0.047
Stream size : 2.90 GiB (93%)
Color primaries : BT.709
Transfer characteristics : BT.709
Matrix coefficients : BT.709
Codec configuration box : avcC

Stardom 5STAR Grand Prix 2021

Audio
ID : 2
Format : AAC LC
Format/Info : Advanced Audio
Codec ID : mp4a-40-2
Duration : 2 h 39 min
Bit rate mode : Constant
Bit rate : 192 kb/s
Channel(s) : 2 channels
Channel layout : L R
Sampling rate : 48.0 kHz
Frame rate : 46.875 FPS
Compression mode : Lossy
Stream size : 218 MiB (7%)
Default : Yes
Alternate group : 1

Stardom 5STAR Grand Prix 2021

Stardom 5-Star Grand Prix 2021 kicked off on Saturday in Yokohama, Kanagawa, Japan. Full results are below (h/t Frightful):

* Oedo Tai (Saki Kashima, Konami, Ruaka & Rina) defeated Lady C, Hanan, AZM & Hina

* 5-Star Grand Prix – Red Stars Match: Mina Shirakawa defeated Fukigen Death

* 5-Star Grand Prix – Red Stars Match: Koguma defeated Natsupoi

* 5-Star Grand Prix – Red Stars Match: Giulia defeated Starlight Kid

* 5-Star Grand Prix – Blue Stars Match: Unagi Sayaka defeated Tam Nakano

* 5-Star Grand Prix – Blue Stars Match: Syuri defeated Saya Kamitani.

* 5-Star Grand Prix – Red Stars Match: Momo Watanabe defeated Mayu Iwatani

* 5-Star Grand Prix – Blue Stars Match: Maika defeated Utami Hayashishita

Stardom 5STAR Grand Prix 2021

 

 

[collapse]

 

 

https://dx-tv.com/

Leave a Reply

Your email address will not be published. Required fields are marked *

This site uses Akismet to reduce spam. Learn how your comment data is processed.