NOAH 20th Anniversary 2020 03 28 Vol 2

Watch NOAH 20th Anniversary 2020 03 28 Vol 2 DX-TV

NOAH

 

 NOAH

 

 

NOAH 20th Anniversary 2020 03 28 Vol 2

 

 

 

Complete name : NOAH.2020.03.28.20th.Anniversary.NOAH.The.Chronicle.Vol.2.JAPANESE.WEB.h264-LATE.mkv
Format : Matroska
Format version : NOAH
File size : 2.59 GiB
Duration : 3 h 18 min
Overall bit rate : 1 874 kb/st

Video
ID : 1
Format : AVC
Duration : 3 h 18 min
Bit rate : 1 775 kb/s
Width : 960 pixels
Height : 540 pixels
Display aspect ratio : 16:9
Frame rate mode : NOAH
Frame rate : 30.000 FPS
Color space : NOAH
Chroma subsampling : 4:2:0
Bit depth : 8 bits
Scan type : Progressive
Bits/(Pixel*Frame) : 0.114
Stream size : 2.46 GiB (95%)
Default : Yes
Forced : NOAH
Color range : Limited
Color primaries : BT.601 PAL
Transfer : NOAH

Audio
ID : 2
Format : AAC LC
Format/Info : NOAH
Codec ID : A_AAC-2
Duration : 3 h 18 min
Bit rate : 96.0 kb/s
Channel(s) : 2 channels
Channel layout : L R
Sampling rate : 44.1 kHz
Frame rate : 43.066 FPS (1024 SPF)
Compression mode : NOAH
Delay relative to video : -166 ms
Stream size : 136 MiB (5%)
Language : English
Default : Yes
Forced : NOAH

 

 

 

Watch online

 

 

Server 1

 

 

 

 

watch now

 

 

 

 

Server 2

 

 

 

watch now

 

 

 

NOAH 20th Anniversary 2020 03 28 Vol 2

 

 

Uploaded By Site DX-TV.com

 

 

Download with Free Links 

 

 

1fichier.com

https://shrt10.com/IZEJutL
https://shrt10.com/UDhdzlI

 

DDL.to

https://shrt10.com/PozTk
https://shrt10.com/Y3ggCf

 

rockfile.co

https://shrt10.com/zK2jyP07
https://shrt10.com/TulY2dKL

 

 

Download with premium account Links 

 

 

Keep2Share

 

 

nitroflare.com

 

 

rapidgator.net

 

 

uploadgig.com

 

 

 

dx-tv.com

 

urlfree.net

 121 total views,  1 views today

Leave a Reply

Your email address will not be published. Required fields are marked *

This site uses Akismet to reduce spam. Learn how your comment data is processed.

%d bloggers like this: