BJW Ikkitousen Strong Climb 2020 03 21

Watch BJW Ikkitousen Strong Climb 2020 03 21 DX-TV

BJW

 

 WWE RAW

 

 

BJW Ikkitousen Strong Climb 2020 03 21

 

Complete name : 2020.03.21.BJW.Ikkitousen.Strong.Climb.2020.Tokyo.Korakuen.Hall.(Samurai.TV).mp4
Format : MPEG-4
Format profile : BJW
Codec ID : isom
File size : 2.15 GiB
Duration : 1 h 54 min
Overall bit rate : 2 696 kb/s
Writing application : BJW

Video
ID : 1
Format : AVC
Duration : 1 h 54 min
Bit rate : 2 491 kb/s
Width : 1 280 pixels
Height : 720 pixels
Display aspect ratio : 16:9
Frame rate mode : BJW
Frame rate : 60.000 FPS
Color space : YUV
Chroma  : 4:2:0
Bit depth : 8 bits
Scan type : BJW
Bits/(Pixel*Frame) : 0.045
Stream size : 1.99 GiB (92%)

Audio
ID : 2
Format : AAC LC
Format/Info : BJW
Codec ID : BJW
Duration : 1 h 54 min
Bit rate mode : Constant
Bit rate : 192 kb/s
Channel(s) : 2 channels
Channel layout : L R
Sampling rate : 44.1 kHz
Frame rate : 43.066 FPS (1024 SPF)
Compression mode : Lossy
Stream size : 157 MiB (7%)
Title : BJW
Default : BJW
Alternate group : 1

 

 

 

Watch online

 

 

Server 1

 

 

 

 

watch now

 

 

 

 

Server 2

 

 

 

watch now

 

 

 

BJW Ikkitousen Strong Climb 2020 03 21

 

 

Uploaded By Site DX-TV.com

 

 

Download with Free Links 

 

 

1fichier.com

 

 

Download with premium account Links 

 

 

Keep2Share

 

 

nitroflare.com

 

 

rapidgator.net

 

 

uploadgig.com

 

 

 

dx-tv.com

 

urlfree.net

 5 total views,  1 views today

Leave a Reply

Your email address will not be published. Required fields are marked *

This site uses Akismet to reduce spam. Learn how your comment data is processed.

%d bloggers like this: