NOAH 20th Anniversary 2020 02 24 vol 1

Watch NOAH 20th Anniversary 2020 02 24 vol 1 DX-TV

 

NOAH

 

 NOAH

 

 

NOAH 20th Anniversary 2020 02 24 vol 1

 

Complete name : 2020.02.24.NOAH.20th.Anniversary.NOAH.the.CHRONICLE.vol.1.(Samurai.TV).mp4
Format : MPEG-4
Format profile : Base Media
Codec ID : isom
File size : 2.67 GiB
Duration : 3 h 36 min
Overall bit rate mode : Variable
Overall bit rate : 1 762 kb/s
Writing application : Lavf58.12.100

Video
ID : 1
Format : AVC
Duration : 3 h 36 min
Bit rate mode : Variable
Bit rate : 1 624 kb/s
Maximum bit rate : 4 608 kb/s
Width : 1 280 pixels
Height : 720 pixels
Display aspect ratio : 16:9
Frame rate mode : Constant
Frame rate : 60.000 FPS
Color space : YUV
Chroma subsampling : 4:2:0
Bit depth : 8 bits
Scan type : Progressive
Bits/(Pixel*Frame) : 0.029
Stream size : 2.46 GiB (92%)
Codec configuration box : avcC

Audio
ID : 2
Format : AAC LC
Format/Info : Advanced Audio Codec Low Complexity
Codec ID : mp4a-40-2
Duration : 3 h 36 min
Source duration : 3 h 36 min
Source_Duration_LastFrame : -17 ms
Bit rate mode : Constant
Bit rate : 129 kb/s
Channel(s) : 2 channels
Channel layout : L R
Sampling rate : 44.1 kHz
Frame rate : 43.066 FPS (1024 SPF)
Compression mode : Lossy
Stream size : 199 MiB (7%)
Source stream size : 199 MiB (7%)
Default : Yes
Alternate group : 1

 

 

 

Watch online

 

 

Server 1

 

 

 


 

 

 

NOAH 20th Anniversary 2020 02 24 vol 1

 

 

Uploaded By Site DX-TV.com

 

 

DDL.to

https://shrt10.com/RCuzeg
https://shrt10.com/ZszekNB

 

rockfile.co

https://shrt10.com/w5ggMd35
https://shrt10.com/pRgIkIHd

 

 

Download with premium account Links 

 

alfafile.net

 

 

nitroflare.com

 

 

rapidgator.net

 

 

uploadgig.com

 

 

 

dx-tv.com

 

 121 total views,  1 views today

Leave a Reply

Your email address will not be published. Required fields are marked *

This site uses Akismet to reduce spam. Learn how your comment data is processed.

%d bloggers like this: