DDT Into The Fight 2020 02 23

Watch DDT Into The Fight 2020 02 23 DX-TV

DDT

 

 

 DDT

 

 

DDT Into The Fight 2020 02 23

 

 

 

Complete name : DDT.2020.02.23.Into.The.Fight.2020.JAPANESE.WEB.h264-LATE.mkv
Format : Matroska
Format version : Version 4
File size : 2.43 GiB
Duration : 3 h 7 min
Overall bit rate : 1 860 kb/s

Video
ID : 1
Format : AVC
Duration : 3 h 7 min
Bit rate : 1 761 kb/s
Width : 960 pixels
Height : 540 pixels
Display aspect ratio : 16:9
Frame rate mode : Constant
Frame rate : 30.000 FPS
Color space : YUV
Chroma subsampling : 4:2:0
Bit depth : 8 bits
Scan type : Progressive
Bits/(Pixel*Frame) : 0.113
Stream size : 2.30 GiB (95%)
Default : Yes
Forced : No
Color range : Limited
Color primaries : BT.601 PAL
Transfer characteristics : BT.601
Matrix coefficients : BT.470 System B/G

Audio
ID : 2
Format : AAC LC
Format/Info : Advanced Audio Codec Low Complexity
Codec ID : A_AAC-2
Duration : 3 h 7 min
Bit rate : 96.0 kb/s
Channel(s) : 2 channels
Channel layout : L R
Sampling rate : 44.1 kHz
Frame rate : 43.066 FPS (1024 SPF)
Compression mode : Lossy
Delay relative to video : -166 ms
Stream size : 128 MiB (5%)
Language : English
Default : Yes
Forced : No

 

 

 

Watch online

 

 

Waiting finish converting video

 

 

Server 1

 

 

 

 


 

 

 

DDT Into The Fight 2020 02 23

 

 

Uploaded By Site DX-TV.com

 

 

DDL.to

https://shrt10.com/zupjsqdXr
https://shrt10.com/8NL0UNe

 

rockfile.co

https://shrt10.com/KCPWo6
https://shrt10.com/dKLlGu4

 

 

Download with premium account Links 

 

 

alfafile.net

 

 

nitroflare.com

 

 

rapidgator.net

 

 

uploadgig.com

 

 

 

dx-tv.com

 

 7 total views,  1 views today

Leave a Reply

Your email address will not be published. Required fields are marked *

This site uses Akismet to reduce spam. Learn how your comment data is processed.

%d bloggers like this: