NJPW The New Beginning in Osaka 2020/02/09 ENG

NJPW The New Beginning in Osaka 2020/02/09 English 540p WEB DX-TV

The New Beginning in Osaka NJPW

 

NJPW The New Beginning

 

NJPW The New

 

NJPW The New Beginning in Osaka 2020/02/09 ENG

 

 

 

Complete name : NJPW The New Beginning in Osaka 2020-02-09 English WEB x264 DX-TV.mp4
Format : MPEG-4
Format profile : Base Media
Codec ID : isom
File size : 4.02 GiB
Duration : 4 h 25 min
Overall bit rate : 2 172 kb/s
Writing application : Lavf58.20.100

Video
ID : 1
Format : AVC
Duration : 4 h 25 min
Bit rate : 2 000 kb/s
Width : 960 pixels
Height : 540 pixels
Display aspect ratio : 16:9
Frame rate mode : Constant
Frame rate : 30.000 FPS
Color space : YUV
Chroma subsampling : 4:2:0
Bit depth : 8 bits
Scan type : Progressive
Bits/(Pixel*Frame) : 0.129
Stream size : 3.71 GiB (92%)

Audio
ID : 2
Format : AAC LC
Format/Info : Advanced Audio Codec Low Complexity
Codec ID : mp4a-40-2
Duration : 4 h 25 min
Bit rate mode : Constant
Bit rate : 161 kb/s
Channel(s) : 2 channels
Channel layout : L R
Sampling rate : 44.1 kHz
Frame rate : 43.066 FPS (1024 SPF)
Compression mode : Lossy
Stream size : 306 MiB (7%)
Title : Track1
Default : Yes
Alternate group : 1

 

Tetsuya Naito

 

A natural in the ring (and always ready to boast about it), Naito is the brazen leader of Los Ingobernables de Japon. He debuted for NJPW in May 2006

and is a former IWGP Junior Heavyweight Tag Team Champion (as a part of NO LIMIT, with Yujiro Takahashi). He was also the winner of the 2013 G1

Climax. In May 2015 he sided with the Mexican wrestling stable, Los Ingobernables. Six months later he founded Los Ingobernables de Japon (L・I・J)

and began a successful rise within NJPW culminating in winning the IWGP Heavyweight Championship in spring 2016. The New Beginning

While his reign was brief, Naito would continue to put himself in the ‘lead role’ of New Japan. The lead role deserved the lead Championship, and as a result,

he showed disdain for most other accomplishments he earned. This included the IWGP Intercontinental Championship, a title which saw incredible abuse under

Naito’s watch; the title belt being flung into the ring and beaten over ring posts and steps would become a common sight. While Naito would eventually lose

the Intercontinental Championship to Hiroshi Tanahashi at Dominion 2017, he would rally to his second G1 Climax victory that year,

and looked to retake the IWGP Heavyweight Championship in the main event of Wrestle Kingdom 12.  Beginning in Osaka

Kazuchika Okada would deny Naito that night. While he would once again win the Intercontinental Championship shortly afterward, Naito had a difficult 2018,

suffering another high profile loss to Chris Jericho at Dominion. As he failed to stay consistent through 2019, he began to doubt his ability to continue,

but kept his hopes for the future alive, with one goal; to become the first ever IWGP Intercontinental and Heavyweight Champion at Wrestle Kingdom 14.

 

NJPW The New Beginning in Osaka

 

Watch online

 

 

Server 1

 

 

watch now

 

 

 

 

NJPW The New Beginning in Osaka 2020/02/09 ENG

 

 

Uploaded By Site DX-TV.com

 

 

 

1fichier.com 

https://shrt10.com/QvTOuvLHW
https://shrt10.com/UCjmyQB
https://shrt10.com/8ZbxU

 

DDL.to

https://shrt10.com/XoN5sOcw6
https://shrt10.com/T5hmbfy
https://shrt10.com/z2UMR

 

earn4files.com

https://shrt10.com/yeIve
https://shrt10.com/rn5nF8hv
https://shrt10.com/qpZMtW6

 

rockfile.co

https://shrt10.com/i4SAiOe
https://shrt10.com/tfLaph2
https://shrt10.com/IeSwT

 

 

Download with premium account Links 

 

 

Keep2Share

 

 

nitroflare.com

 

 

rapidgator.net

 

 

uploadgig.com

 

NJPW The New Beginning in Osaka

dx-tv.com

 

Leave a Reply

Your email address will not be published. Required fields are marked *

This site uses Akismet to reduce spam. Learn how your comment data is processed.