Watch UFC 247 PPV 720p

Watch UFC 247 PPV 720p HDTV VERUM DX-TV

 

 

 

 UFC 247

 

 

 

 

Watch UFC 247 PPV 720p

 

 

 

 

 
Complete name : UFC.247.PPV.720p.HDTV.x264-VERUM.mkv
Format : Matroska
Format version : Version 4
File size : 4.73 GiB
Duration : 3 h 28 min
Overall bit rate : 3 252 kb/s

Video
ID : 1
Format : AVC
Duration : 3 h 28 min
Bit rate : 2 804 kb/s
Width : 1 280 pixels
Height : 720 pixels
Display aspect ratio : 16:9
Frame rate mode : Constant
Frame rate : 50.000 FPS
Color space : YUV
Chroma subsampling : 4:2:0
Bit depth : 8 bits
Scan type : Progressive
Bits/(Pixel*Frame) : 0.061
Stream size : 4.08 GiB (86%)
Language : English
Default : Yes
Forced : No
Color range : Limited

Audio
ID : 2
Codec ID : A_MPEG/L2
Codec ID/Hint : MP2
Duration : 3 h 28 min
Bit rate mode : Constant
Bit rate : 384 kb/s
Channel(s) : 2 channels
Sampling rate : 48.0 kHz
Compression mode : Lossy
Stream size : 572 MiB (12%)
Language : English
Default : Yes
Forced : No

 

 

Watch online

 

Server 1

 

 

watch now

 

 

Watch UFC 247 PPV 720p

 

 

 

Uploaded By Site DX-TV.com

 

 

 

 

 

1fichier.com 

https://shrt10.com/kcilR55J
https://shrt10.com/3Fc5Xgso
https://shrt10.com/z46HhgM

 

DDL.to

 

 https://shrt10.com/sJeARF5X
https://shrt10.com/drlIMQSi
https://shrt10.com/HVbPR9

 

earn4files.com

https://shrt10.com/zn1tfXlYw
https://shrt10.com/0GttVvCK
https://shrt10.com/4Q0vgUKPS

 

rockfile.co

https://shrt10.com/ppjJBhi
https://shrt10.com/h2knTea9
https://shrt10.com/2aJwx3wE2

 

 

Download with premium account Links 

 

 

Keep2Share

 

 

nitroflare.com

 

 

rapidgator.net

 

 

uploadgig.com

 

 

 

dx-tv.com

 

Leave a Reply

Your email address will not be published. Required fields are marked *

This site uses Akismet to reduce spam. Learn how your comment data is processed.

%d bloggers like this: