MMA KSW 54 29 08 2020 Full Show Online

Watch MMA KSW 54 29 08 2020 Full Show Online Lang RUS DX-TV

 

MMA KSW 54 Online

 

 MMA KSW 54 Online

MMA KSW 54 29 08 2020 Full Show Online

 

 

 

[su_expand more_text=”Show More Info” less_text=”Close all Info” height=”30″ text_color=”#000000″ link_color=”#e25f8b” link_style=”button” more_icon=”icon: arrow-down” less_icon=”icon: arrow-up”]

Complete name : KSW 54 Gamrot vs. Ziolkowski 29.08.2020.mkv
Format : Matroska
Format version : Version 4
File size : 3.42 GiB
Duration : 3 h 27 min
Overall bit rate : 2 362 kb/s

 KSW 54 29 08 2020 Full Show Online

Video
ID : 1
Format : AVC
Codec ID : V_MPEG4
Duration : 3 h 27 min
Bit rate : 2 168 kb/s MMA KSW 54 Online
Width : 720 pixels
Height : 576 pixels
Display aspect ratio : 16:9
Original display aspect rat : 16:9
Frame rate mode : Constant
Frame rate : 25.000 FPS
Standard : Component
Color space : YUV
Chroma sub-sampling : 4:2:0
Bit depth : 8 bits
Scan type : Interlaced
 store method : Separated fields
Scan order : Top Field First
Bits/(Pixel*Frame) : 0.209
Stream size : 3.14 GiB (92%)
Default : No MMA KSW 54 Online
Forced : No
Color range : Limited
Color primaries : BT.601 PAL
Transfer characteristics : BT.470 System B/G
Matrix coefficients : BT.470 System B/G

 KSW 54 29 08 2020 Full Show Online

Audio
ID : 2
Format : MPEG Audio
version : Version 1
Format profile : Layer 2
Codec ID : A_MPEG/L2
Codec ID/Hint : MP2
Duration : 3 h 27 min
Bit rate mode : Constant
Bit rate : 192 kb/s
Channel(s) : 2 channels
Sampling rate : 48.0 kHz
Frame rate : 41.667 FPS (1152 SPF)
Compression mode : Lossy
Stream size : 285 MiB (8%)
Language : Russian
Default : Yes
Forced : No

 

 KSW 54 Online  Results
Main Event

KSW Lightweight Championship

Mateusz Gamrot (16-0) defeated Marian Ziolkowski (21-7-1) via unanimous decision to retain lightweight title

Co-Main Event

Heavyweight

Izu Ugonoh (0-0) defeated Quentin Domingos (5-1) via Round 1 TKO (injury)

Heavyweight

Michal Kita (19-11-1) defeated Michal Andryszak (21-8) via Round 1 TKO

Lightweight 

Maciej Kazieczko (6-1) defeated Karlo Caput (8-1) via Round 3 TKO 

Bantamweight

Pawel Politylo (4-2) defeated Bogdan Barbu (16-11) via unanimous decision

Lightweight

Lukasz Rajewski (9-6) defeated Bartlomiej Kopera (9-5) via split decision

Welterweight

Kacper Koziorzebski (6-2) defeated Adam Niedzwiedz via 2nd round TKO ( leg kicks)

Lightweight

Sebastian Rajewski (8-5) defeated Armen Stepanyan (6-3) via unanimous decision

 

MMA KSW 54 29 08 2020 Full Show Online

 

 

[/su_expand]

 

 

 

Watch online

 

 

[su_expand more_text=”Open Videos Online” less_text=”Close Videos” height=”0″ text_color=”#0859fe” link_color=”#a74a69″ link_style=”button” more_icon=”icon: play” less_icon=”icon: stop”]

 

 

Server 1

 

 

 

 

watch now

 

 

MMA KSW 54 29 08 2020 

 

Server-2

 

 

 

watch now

 

 

 

 

Server-3

 

 

 

MMA KSW 54 Online

 

 

 

 

 

[/su_expand]
 

Uploaded By Site DX-TV.com

 

 

 

Download Links with High Speed   

 

 

[su_expand more_text=”Open Download Links” less_text=”Close all Links” height=”0″ text_color=”#4b9a3e” link_color=”#1b3fa8″ link_style=”button” more_icon=”icon: link” less_icon=”icon: unlink”]

Keep2Share

 

 

 

nitroflare.com

 

 

 

rapidgator.net

 

 

 

uploadgig.com

 

 

[/su_expand]
dx-tv.com

 

urlfree.net

Leave a Reply

Your email address will not be published. Required fields are marked *

This site uses Akismet to reduce spam. Learn how your comment data is processed.