Free PBC Fight Night 29 08 2020 720p HDTV FS1

Watch Free PBC Fight Night 29 08 2020 720p HDTV FS1 DX-TV

 

Free PBC Fight Night 29 08 2020

 

 Free PBC Fight Night 29 08 2020

 

Free PBC Fight Night 29 08 2020 720p HDTV FS1

 

 

 

[su_expand more_text=”Show More Info” less_text=”Close all Info” height=”30″ text_color=”#000000″ link_color=”#e25f8b” link_style=”button” more_icon=”icon: arrow-down” less_icon=”icon: arrow-up”]

 

Complete name : PBC Fight Night 08-29-2020 HDTV 720p MP4 AAC.mp4
Format : MPEG-4
Format profile : Base Media
Codec ID : isom
File size : 2.75 GiB
Duration : 1 h 30 min
Overall bit rate : 4 363 kb/s

Video
ID : 1
Format : AVC
Duration : 1 h 30 min
Bit rate : 4 025 kb/s
Width : 1 280 pixels
Height : 720 pixels
Display aspect ratio : 16:9
Frame rate : 59.940 (60000/1001) FPS
Color space : YUV
Chroma sub-sampling : 4:2:0
Bit depth : 8 bits
Scan type : Progressive
Bits/(Pixel*Frame) : 0.073
Stream size : 2.54 GiB (92%)
Color range : Limited
Color primaries : BT.709
Transfer characteristics : BT.709
Matrix coefficients : BT.709
Codec configuration box : avcC

Free PBC Fight Night 29 08 2020

Audio
ID : 2
Format : AAC LC
Format/Info : Advanced
Codec ID : mp4a-40-2
Duration : 1 h 30 min
Duration_LastFrame : -21 ms
Bit rate mode : Constant
Bit rate : 317 kb/s
Channel(s) : 2 channels
Channel layout : L R
Sampling rate : 48.0 kHz
Frame rate : 46.875 FPS (1024 SPF)
Compression mode : Lossy
Stream size : 205 MiB (7%)
Language : English
Default : Yes
Alternate group : 1
Menus : 3

Menu #1
ID : 3
Codec ID : txet
Duration : 1 h 30 min
Language : English
Menu For : 1,2

Free PBC Fight Night 29 08 2020

 

It’s had been over 30 years since boxing featured on network television in prime time. In September 2018

, it was announced that a blockbuster deal had been struck for Fox Sports ,

has become the major broadcaster for Premier Boxing Championships (PBC).

Previously, Fox Sports featured boxing on FoxSports1 and FOX Deportes only.

FS1 would carry 12 boxing nights each year.

The big boon for longtime boxing fans, as well as newer viewers,

are the 10 “fight nights” of PBC’s marquee events that will be broadcast during the year.

With a roster of more than 160 boxers that includes 60 current or former champions,

the programming on FOX promises the highest quality and level of excitement on FOX, FS1 and FOX PPV.

 

Free PBC Fight Night 29 08 2020 720p HDTV FS1

Deontay Wilder the WBC heavyweight champion is now signed ,

to PBC along with the undefeated WBC middleweight champion,

Jermall Charlo, and Mikey Garcia, perhaps one of the best pound-for-pound fighters,

having won titles in four different weight classes. Jermall Charlo and his twin brother,

Jermell, were both featured on FOX’s recent stellar night of boxing.

After seeing Jermell lose to Tony Harrison in a controversial decision,

Jermall went out and retained his belt by defeating Matt Korobov.

This was an enthralling evening and FOX surely established a place for boxing .

 

Free PBC Fight Night 29 08 2020 720p HDTV FS1

 

 

[/su_expand]

 

 

 

Watch online

 

 

[su_expand more_text=”Open Videos Online” less_text=”Close Videos” height=”0″ text_color=”#0859fe” link_color=”#a74a69″ link_style=”button” more_icon=”icon: play” less_icon=”icon: stop”]

 

 

Server 1

 

 

 

 

watch now

 

 

 

 

Server-2

 

 

 

watch now

 

 

 

 

Server-3

 

 

 

Free PBC Fight Night 29 08 2020

 

 

 

 

 

[/su_expand]
 

 

Uploaded By Site DX-TV.com

 

 

 

Download Links with High Speed   

 

 

[su_expand more_text=”Open Download Links” less_text=”Close all Links” height=”0″ text_color=”#4b9a3e” link_color=”#1b3fa8″ link_style=”button” more_icon=”icon: link” less_icon=”icon: unlink”]
 

Keep2Share

 

 

 

nitroflare.com

 

 

 

rapidgator.net

 

 

 

uploadgig.com

 

 

[/su_expand]
dx-tv.com

 

urlfree.net

Leave a Reply

Your email address will not be published. Required fields are marked *

This site uses Akismet to reduce spam. Learn how your comment data is processed.