LFA 97 Full Show Online 1080p DX-TV

LFA 97 Full Show Online 720p /1080p DX-TV

LFA 97 Full Show Online

 LFA 97 Full Show Online

 

Download LFA 97 Links with premium High Speed   

 

 

dropapk.to

http://shrt10.com/BPkrdN

 

 

nitroflare.com

http://shrt10.com/VWXg7
http://shrt10.com/KQOScNeJ

 

 

rapidgator.net

http://shrt10.com/K22tLksU
http://shrt10.com/nJBWoxBO

 

 

uploaded.net

http://shrt10.com/3DBsC0uH3

 

 

uploadgig.com

http://shrt10.com/3ySH8hb9E

 

Watch LFA 97 online

 

Server 1

 

 

 

LFA 97

 

 

 

 

 

Server-2

 

 

 

 

watch now

 

 

Uploaded By Site DX-TV.com

 

 

Complete name : LFA.97.720p.WEB-DL.mp4
Format : MPEG-4
Format profile : Base Media
Codec ID : isom
File size : 2.11 GiB
Duration : 3 h 6 min
Overall bit rate : 1 625 kb/s
Writing application : Lavf58.12.100

LFA 97

Video
ID : 1
Format : AVC
Duration : 3 h 6 min
Bit rate : 1 512 kb/s
Width : 1 280 pixels
Height : 720 pixels
Display aspect ratio : 16:9
Frame rate mode : Constant
Frame rate : 30.000 FPS
Color space : YUV
Chroma subsampling : 4:2:0
Bit depth : 8 bits
Scan type : Progressive
Bits/(Pixel*Frame) : 0.055
Stream size : 1.94 GiB (92%)

LFA 97

Audio
ID : 2
Format : AAC LC
Format/Info : Advanced Audio Codec
Codec ID : mp4a-40-2
Duration : 3 h 6 min
Bit rate mode : Constant
Bit rate : 128 kb/s
Channel(s) : 2 channels
Channel layout : L R
Sampling rate : 48.0 kHz
Frame rate : 46.875 FPS (1024 SPF)
Compression mode : Lossy
Stream size : 171 MiB (8%)
Default : Yes
Alternate group : 1

LFA 97

Audio
ID : 2
Format : AAC LC
Format/Info : Advanced Audio Codec
Codec ID : mp4a-40-2
Duration : 3 h 6 min
Bit rate mode : Constant
Bit rate : 128 kb/s
Channel(s) : 2 channels
Channel layout : L R
Sampling rate : 48.0 kHz
Frame rate : 46.875 FPS (1024 SPF)
Compression mode : Lossy
Stream size : 171 MiB (8%)
Default : Yes
Alternate group : 1

LFA 97

Audio
ID : 2
Format : AAC LC
Format/Info : Advanced Audio Codec
Codec ID : mp4a-40-2
Duration : 3 h 6 min
Bit rate mode : Constant
Bit rate : 128 kb/s
Channel(s) : 2 channels
Channel layout : L R
Sampling rate : 48.0 kHz
Frame rate : 46.875 FPS (1024 SPF)
Compression mode : Lossy
Stream size : 171 MiB (8%)
Default : Yes
Alternate group : 1

LFA 97

 

https://dx-tv.com/

You May Also Like

1 Comment

Leave a Reply

Your email address will not be published. Required fields are marked *

This site uses Akismet to reduce spam. Learn how your comment data is processed.