KSW 60 Free Online 1080p Full Show Replay

KSW 60 Free Online 720p/ 1080p 24 04 2021 DX-TV

KSW 60 Free Online

 KSW 60 Free Online

 

 

 

Download Links with High Speed


 

Dopapk

 

 

Show Links

 

http://shrt10.com/iRcKI

http://shrt10.com/0CYm05

 

[collapse]

 

 

Nitroflare

 

 

Show Links

 

http://shrt10.com/NOTQr2

http://shrt10.com/iXlmS

http://shrt10.com/VZ4lno

 

[collapse]

 

 

Rapidgator

 

 

Show Links

 

http://shrt10.com/OoajzD

http://shrt10.com/IYI7U

http://shrt10.com/n8xd1

 

[collapse]

 

 

Uploaded

 

 

Show Links

 

http://shrt10.com/yjtCbbG

http://shrt10.com/CkSOf5nLc

 

[collapse]

 

 

Watch online

 

Server 1

 

 

 

 

KSW 60 Free Online

 

 

 

 

Server-2

 

 

 

 

watch now

 

 

 

|Server-3

 

 

 

 

watch now

 

 

Uploaded By Site DX-TV.com

 

 

Show Info This Show

 

 

Complete name : KSW 60 1080p 24.04.2021.mp4
Format : MPEG-4
Format profile : Base Media
Codec ID : isom
File size : 10.3 GiB
Duration : 3 h 44 min
Overall bit rate : 6 542 kb/s

KSW 60 Free Online

Video
ID : 1
Format : AVC
Duration : 3 h 44 min
Bit rate : 6 276 kb/s
Width : 1 920 pixels
Height : 1 080 pixels
Display aspect ratio : 16:9
Frame rate mode : Variable
Frame rate : 30.000 FPS
Color space : YUV
Chroma subsampling : 4:2:0
Bit depth : 8 bits
Scan type : Progressive
Bits/(Pixel*Frame) : 0.101
Stream size : 9.86 GiB (96%)
Codec configuration box : avcC

Audio
ID : 2
Format : AAC LC
Format/Info : Advanced Audio
Codec ID : mp4a-40-2
Duration : 3 h 44 min
Bit rate mode : Constant
Bit rate : 265 kb/s
Channel(s) : 2 channels
Channel layout : L R
Sampling rate : 44.1 kHz
Frame rate : 43.066 FPS (1024 SPF)
Compression mode : Lossy
Stream size : 422 MiB (4%)
Default : Yes
Alternate group : 1

KSW 60 Free

Complete name : KSW 60 24.04.2021 720p HDTV H264 DX-TV.com.mp4
Format : MPEG-4
Format profile : Base Media
File size : 4.74 GiB
Duration : 3 h 44 min
Overall bit rate : 3 018 kb/s

Video
ID : 1
Format : AVC
Duration : 3 h 44 min
Bit rate : 2 847 kb/s
Width : 1 280 pixels
Height : 720 pixels
Display aspect ratio : 1.916
Frame rate mode : Variable
Frame rate : 30.000 FPS
Minimum frame rate : 12.537 FPS
Maximum frame rate : 30.000 FPS
Color space : YUV
Chroma subsampling : 4:2:0
Bit depth : 8 bits
Scan type : Progressive
Bits/(Pixel*Frame) : 0.103
Stream size : 4.47 GiB (94%)
Color range : Limited
Color primaries : BT.709
Transfer characteristics : BT.709
Matrix coefficients : BT.709
Codec configuration box : avcC

Audio
ID : 2
Format : AAC LC
Codec ID : mp4a-40-2
Duration : 3 h 44 min
Bit rate mode : Constant
Bit rate : 161 kb/s
Channel(s) : 2 channels
Channel layout : L R
Sampling rate : 44.1 kHz
Frame rate : 43.066 FPS
Compression mode : Lossy
Stream size : 258 MiB (5%)
Title : Stereo
Default : Yes
Alternate group : 1

KSW 60 Free

Complete name : Ksw 60 24.04.2021 480p dx-tv.com.mp4
Format : MPEG-4
File size : 2.67 GiB
Duration : 3 h 44 min
Overall bit rate : 1 701 kb/s

Video
ID : 1
Format : AVC
Bit rate : 1 531 kb/s
Width : 720 pixels
Height : 480 pixels
Display aspect ratio : 1.915
Original display aspect rat : 1.916
Frame rate mode : Variable
Frame rate : 30.000 FPS
Minimum frame rate : 9.711 FPS
Maximum frame rate : 30.000 FPS
Color space : YUV
Chroma subsampling : 4:2:0
Bit depth : 8 bits
Scan type : Progressive
Bits/(Pixel*Frame) : 0.148
Stream size : 2.40 GiB (90%)
Color range : Limited
Color primaries : BT.709
Transfer characteristics : BT.709
Matrix coefficients : BT.709
Codec configuration box : avc

KSW 60 Free

Audio
ID : 2
Format : AAC LC
Codec ID : mp4a-40-2
Duration : 3 h 44 min
Bit rate mode : Constant
Bit rate : 161 kb/s
Channel(s) : 2 channels
Channel layout : L R
Sampling rate : 44.1 kHz
Frame rate : 43.066 FPS (1024 SPF)
Compression mode : Lossy
Stream size : 258 MiB (9%)
Title : Stereo
Default : Yes
Alternate group : 1

KSW 60 Free

[collapse]

 

 

https://dx-tv.com/

You May Also Like

3 Comments

Comments are closed.