Japanese NJPW Lions Break Collision 24 07 2020 720p Free

Watch English NJPW Lions Break Collision 24 07 2020 720p Free DX-TV

 

Japanese NJPW
 English NJPW Lions Break

Japanese NJPW Lions Break Collision 24 07 2020 720p Free

 

Complete name : NJPW.2020.07.24.Lions.Break.Collision.Episode.4.JAPANESE.720p.WEB.h264-LATE.mkv
Format : Matroska
Format version : Version 4
File size : 837 MiB Japanese NJPW
Duration : 58 min 26 s
Overall bit rate : 2 002 kb/s

Japanese NJPW Lions Break Collision 24 07 2020 720p Free

Video
ID : 1
Format : AVC
Format/Info : Advanced Japanese NJPW
profile : [email protected]
Format settings : 3 Ref Frames
settings, CABAC : No
Format settings, : 3 frames
Format settings, GOP : M=1, N=30
Codec ID : V_MPEG4 Japanese NJPW
Duration : 58 min 25 s
Bit rate : 1 904 kb/s
Width : 1 280 pixels
Height : 720 pixels
Display aspect ratio : 16:9
Frame rate mode : Constant
Frame rate : 30.000 FPS
Color space : YUV Japanese NJPW
Chroma sub sampling : 4:2:0
Bit depth : 8 bits
Scan type : Progressive
Bits/(Pixel*Frame) : 0.069
Stream size : 795 MiB (95%)

Japanese NJPW Lions Break Collision 24 07 2020 720p Free

Audio
ID : 2
Format : AAC LC
Format/Info : Advanced
Codec ID : A_AAC-2 Japanese NJPW
Duration : 58 min 26 s
Bit rate : 96.0 kb/s
Channel(s) : 2 channels
Channel layout : L R Japanese NJPW
Sampling rate : 44.1 kHz
Frame rate : 43.066 FPS (1024 SPF)
Compression mode : Lossy
Delay relative to video : -23 ms
Stream size : 40.6 MiB (5%)
Default : Yes
Forced : No

Japanese NJPW Lions Break Collision 24 07 2020 720p Free

6th Match: NEVER Openweight Championship:

Shingo Takagi vs El Desperado

 

In the semi-main event, Shingo Takagi defends the NEVER Open weight Championship for the second time in two weeks 

Desperado has been one of several junior heavyweights wanting to take advantage of the NEVER title’s open weight status of late.

After SHO came up just shy of putting The Dragon away in an intense battle at Dominion, Japanese NJPW

it wasn’t altogether shocking to see ‘Despe’ move to make a challenge.

Yet the manner in which he did it was a shock, Japanese NJPW

attacking Shingo on his exit from Osaka Jo Hall,and making away with the championship belt itself,

Japanese NJPW Lions Break Collision 24 07 2020 720p Free

as he mocked Shingo with a jeer of ‘you know what this means, don’t you’. 

During the New Japan Cup, Desperado reaffirmed what long time 

Despe is a junior heavyweight wrestler with heavyweight knock out power,

and his anything goes style could have Shingo Takagi in serious trouble.

At Osaka Jo Hall, Desperado did significant damage, not to the champion’s body,

but to his pride when he took away the NEVER gold.

Desperado’s larceny continued into New Japan Road on Monday;

could he push Takagi’s buttons enough to force the Dragon into a fatal mistake?

 

Japanese NJPW Lions Break Collision 24 07 2020 720p Free

 

 

 

Watch online

 

 

Server 1

 

 

 

 

Japanese NJPW

 

 

 

 

Server 2

 

 

 

watch now

 

 

 

Server-3

 

 

 

Japanese NJPW

 

 

 

Uploaded By Site DX-TV.com

 

 

 

Download with premium account Links 

 

 

Keep2Share

 

 

nitroflare.com

 

 

rapidgator.net

 

 

uploadgig.com

 

 

 

dx-tv.com

 

urlfree.net

You May Also Like