Watch BKFC 11 720p Full Show Free Online

BKFC 11 720p Full Show Free Online DX-TV

 

BKFC 11
 BKFC 11

Watch BKFC 11 720p Full Show Free Online

 

 

 

Complete name : BKFC.11.720p.WEB mp4
Format : MPEG-4
Format profile : Base Media
Codec ID : mp42
File size : 2.39 GiB BKFC 11
Duration : 2 h 51 min
Overall bit rate : Variable
Overall bit rate : 1 990 kb/s
gstd : 10300070

 BKFC 11 720p Full Show Free Online

Video
ID : 1
Format : AVC
Format/Info : Advanced
Codec ID : avc1
Codec ID/Info : Advanced
Duration : 2 h 51 min
Bit rate : 1 859 kb/s
Width : 1 280 pixels
Height : 720 pixels
Display aspect ratio : 16:9
Frame rate mode : Constant
Frame rate : 30.000 FPS BKFC 11
Color space : YUV
Chroma sub sampling : 4:2:0
Bit depth : 8 bits
Scan type : Progressive
Bits/(Pixel*Frame) : 0.067
Stream size : 2.23 GiB (93%)
Color range : Limited BKFC 11
Color primaries : BT.709
Transfer characteristics : BT.709
Matrix coefficients : BT.709
Codec configuration box : avcC

 BKFC 11 720p Full Show Free Online

Audio
ID : 2
Format : AAC LC
Format/Info : Advanced
Codec ID : mp4a-40-2
Duration : 2 h 51 min
Bit rate mode : Variable
Bit rate : 128 kb/s BKFC 11
Channel(s) : 2 channels
Channel layout : L R
Sampling rate : 44.1 kHz
Frame rate : 43.066 FPS (1024 SPF)
Compression mode : Lossy
Stream size : 157 MiB (6%)
Language : English BKFC 11
Encoded date : UTC 2020-07-25
Tagged date : UTC 2020-07-25 

Watch BKFC 11 720p Full Show Free Online

 

BKFC 11 720p Full Show Free Online

 

 

 

Watch online

 

 

Server 1

 

 

 

 

BKFC 11

 

 

 

 

Server 2

 

 

 

watch now

 

 

 

Server-3

 

 

 

BKFC 11

 

 

 

Uploaded By Site DX-TV.com

 

 

 

Download with premium account Links 

 

 

Keep2Share

 

 

nitroflare.com

 

 

rapidgator.net

 

 

uploadgig.com

 

 

 

dx-tv.com

 

urlfree.net

 86 total views,  4 views today

Leave a Reply

Your email address will not be published. Required fields are marked *

This site uses Akismet to reduce spam. Learn how your comment data is processed.

%d bloggers like this: