iMPACT Wrestling Online 2021 02 02 1080p DX-TV

iMPACT Wrestling Online 2021 02 02 720p 1080p HDTV Star DX-TV

iMPACT Wrestling Online

 iMPACT Wrestling Online

 

Download Links with premium High Speed   

 

 

dropapk.to

http://shrt10.com/cQOeU64x
http://shrt10.com/pR15Kb
http://shrt10.com/ie2QNhN

 

 

nitroflare.com

http://shrt10.com/0qGqM
http://shrt10.com/qBaJSb3C
http://shrt10.com/lHHBG

 

 

rapidgator.net

http://shrt10.com/4gdc2U
http://shrt10.com/naUKdQ
http://shrt10.com/OMz1sPqi3

 

 

uploaded.net

http://shrt10.com/zr1NrIc
http://shrt10.com/MqRoJNDIE
http://shrt10.com/o6DZpsWAX

 

 

 

Watch iMPACT Wrestling online

 

Server 1

 

 

 

 

iMPACT Wrestling

 

 

 

 

Server-2

 

 

 

 

watch now

 

 

Uploaded By Site DX-TV.com

 

Complete name : iMPACT.Wrestling.2021.02.02.1080p.HDTV.x264-Star.mkv
Format : Matroska
Format version : Version 4
File size : 4.97 GiB
Duration : 1 h 27 min
Overall bit rate : 8 132 kb/s

iMPACT Wrestling

Video
ID : 1
Format : AVC
Format/Info : Advanced Video
Duration : 1 h 27 min
Bit rate : 8 000 kb/s
Width : 1 920 pixels
Height : 1 080 pixels
Display aspect ratio : 16:9
Frame rate mode : Constant
Frame rate : 29.970 (30000/1001) FPS
Color space : YUV
Chroma subsampling : 4:2:0
Bit depth : 8 bits
Scan type : Progressive
Bits/(Pixel*Frame) : 0.129
Stream size : 4.79 GiB (96%)
Forced : No
Color range : Limited
Color primaries : BT.709
Transfer characteristics : BT.709
Matrix coefficients : BT.709

iMPACT Wrestling

Audio
ID : 2
Format : AC-3
Format/Info : Audio Coding 3
Commercial name : Dolby Digital
Codec ID : A_AC3
Duration : 1 h 27 min
Bit rate mode : Constant
Bit rate : 128 kb/s
Channel(s) : 2 channels
Channel layout : L R
Sampling rate : 48.0 kHz
Frame rate : 31.250 FPS (1536 SPF)
Compression mode : Lossy
Delay relative to video : -5 ms
Stream size : 80.1 MiB (2%)
Title : Stereo
Service kind : Complete Main
Default : Yes
Forced : No

Complete name : iMPACT.Wrestling.2021.02.02.720p.HDTV.x264-Star.mkv
Format : Matroska
Format version : Version 4
File size : 2.52 GiB
Duration : 1 h 27 min
Overall bit rate : 4 132 kb/s

Video
ID : 1
Format : AVC
Format/Info : Advanced Video
Duration : 1 h 27 min
Bit rate : 4 000 kb/s
Width : 1 280 pixels
Height : 720 pixels
Display aspect ratio : 16:9
Frame rate mode : Constant
Frame rate : 29.970 (30000/1001) FPS
Color space : YUV
Chroma subsampling : 4:2:0
Bit depth : 8 bits
Scan type : Progressive
Bits/(Pixel*Frame) : 0.145
Stream size : 2.40 GiB (95%)
Forced : No
Color range : Limited
Color primaries : BT.709
Transfer characteristics : BT.709
Matrix coefficients : BT.709

iMPACT Wrestling

Audio
ID : 2
Format : AC-3
Format/Info : Audio Coding 3
Commercial name : Dolby Digital
Codec ID : A_AC3
Duration : 1 h 27 min
Bit rate mode : Constant
Bit rate : 128 kb/s
Channel(s) : 2 channels
Channel layout : L R
Sampling rate : 48.0 kHz
Frame rate : 31.250 FPS (1536 SPF)
Compression mode : Lossy
Delay relative to video : -5 ms
Stream size : 80.1 MiB (3%)
Title : Stereo
Service kind : Complete Main
Default : Yes
Forced : No

Complete name : iMPACT.Wrestling.2021.02.02.HDTV.x264-Star.mp4
Format : MPEG-4
Format profile : Base Media
Codec ID : mp42
File size : 889 MiB
Duration : 1 h 27 min
Overall bit rate : 1 421 kb/s

iMPACT Wrestling

Video
ID : 1
Format : AVC
Format/Info : Advanced Video
Duration : 1 h 27 min
Bit rate : 1 300 kb/s
Width : 720 pixels
Height : 480 pixels
Display aspect ratio : 16:9
Original display aspect rat : 16:9
Frame rate mode : Constant
Frame rate : 29.970 (30000/1001) FPS
Standard : NTSC
Color space : YUV
Chroma subsampling : 4:2:0
Bit depth : 8 bits
Scan type : Progressive
Bits/(Pixel*Frame) : 0.126
Stream size : 814 MiB (92%)
Color range : Limited
Color primaries : BT.709
Transfer characteristics : BT.709
Matrix coefficients : BT.709
Codec configuration box : avcC

Audio
ID : 2
Format : AAC LC
Format/Info : Advanced Audio
Codec ID : mp4a-40-2
Duration : 1 h 27 min
Bit rate mode : Constant
Bit rate : 112 kb/s
Channel(s) : 2 channels
Channel layout : L R
Sampling rate : 48.0 kHz
Frame rate : 46.875 FPS (1024 SPF)
Compression mode : Lossy
Stream size : 69.9 MiB (8%)
Title : Stereo
Default : Yes
Alternate group : 1

iMPACT Wrestling

 

https://dx-tv.com/

You May Also Like

Leave a Reply

Your email address will not be published. Required fields are marked *

This site uses Akismet to reduce spam. Learn how your comment data is processed.