Watch Glory 77 Online 720p HDTV DX-TV

Watch Glory 77 Online 720p HDTV DX-TV

Watch Glory 77

 Watch Glory 77

 

Download Links with premium High Speed   

 

 

dropapk.to

 

http://shrt10.com/9pH4JYp2J

 

nitroflare.com

 

http://shrt10.com/TFL69

 

rapidgator.net

 

http://shrt10.com/TjaSir

 

uploaded.net

 

http://shrt10.com/PuBXUx

 

 

Watch online

 

Server 1

 

 

 

 

Watch Glory 77

 

 

 

 

Server-2

 

 

 

 

watch now

 

 

Uploaded By Site DX-TV.com

 

 

Watch Glory 77: Rico vs Gerges | Rigters vs Khbabez 1/30/20 Preview
The first event of Glory in 2021 will be live on on January 30th!
Glory 77 have outdone themselves with this event!
On January 30th you’ll get to see some of your favorites collide in intense and exciting fights 4 of them for titles on the line,
two of the titles are for Undisputed champion! All of this in one night!

 Glory 77

Quick Fight Card of Glory 77 1/30/21
Artem Vakhitov Vs Alex Pereira
Cédric Doumbé Vs Murthel Groenhart
Levi Rigters Vs Tarik Khbabez
Rico Verhoeven Vs Hesdy Gerges
Tiffany Van Soest Vs Aline Pereira
Luis Tavares Vs Donegi Abena

Watch Glory 77

Complete name : Watch Glory 77 720p HDTV H264 DX-TV.com.mp4
Format : MPEG-4
Format profile : Base Media
Codec ID : isom
File size : 3.25 GiB
Duration : 4 h 7 min
Overall bit rate : 1 881 kb/s
Writing application : Lavf58.49.100

Video
ID : 1
Format : AVC
Format/Info : Advanced Video
Duration : 4 h 7 min
Bit rate : 1 778 kb/s
Width : 1 280 pixels
Height : 720 pixels
Display aspect ratio : 16:9
Frame rate mode : Constant
Frame rate : 25.000 FPS
Color space : YUV
Chroma subsampling : 4:2:0
Bit depth : 8 bits
Scan type : Progressive
Bits/(Pixel*Frame) : 0.077
Stream size : 3.07 GiB (95%)
Codec configuration box : avc

Glory 77

Audio
ID : 2
Format : AAC LC
Format/Info : Advanced Audio
Codec ID : mp4a-40-2
Duration : 4 h 7 min
Bit rate mode : Constant
Bit rate : 96.0 kb/s
Channel(s) : 2 channels
Channel layout : L R
Sampling rate : 48.0 kHz
Frame rate : 46.875 FPS (1024 SPF)
Compression mode : Lossy
Stream size : 170 MiB (5%)
Default : Yes
Alternate group : 1

https://dx-tv.com/

You May Also Like

Leave a Reply

Your email address will not be published. Required fields are marked *

This site uses Akismet to reduce spam. Learn how your comment data is processed.