ICW No Holds Barred Vol 9 2021 01 09 720p DX-TV

ICW No Holds Barred Vol 9 2021 01 09 720p DX-TV

ICW No Holds Barred Vol 9

 ICW No Holds Barred Vol 9

 

Download Links with premium High Speed   

 

 

 

nitroflare.com

http://shrt10.com/dIGUiQ

 

 

rapidgator.net

http://shrt10.com/1SIeWsOIY

 

 

uploaded.net

http://shrt10.com/Liyxn4B

 

 

uploadgig.com

http://shrt10.com/g5nSPF39

 

Watch online

 

Server 1

 

 

 

 

ICW No Holds Barred Vol

 

 

 

 

Server-2

 

 

 

 

watch now

 

 

Uploaded By Site DX-TV.com

 

Complete name : ICW.No.Holds.Barred.2021.01.09.Volume.9.720p.WEB.h264.mp4
Format : MPEG-4
Format profile : Base Media
Codec ID : isom (mp41/avc1)
File size : 2.27 GiB
Duration : 3 h 13 min
Overall bit rate mode : Variable
Overall bit rate : 1 678 kb/s

Video
ID : 2
Format : AVC
Duration : 3 h 13 min
Bit rate : 1 536 kb/s
Width : 1 280 pixels
Height : 720 pixels
Display aspect ratio : 16:9
Frame rate mode : Variable
Frame rate : 29.970 (29970/1000) FPS
Color space : YUV
Chroma subsampling : 4:2:0
Bit depth : 8 bits
Scan type : Progressive
Bits/(Pixel*Frame) : 0.056
Stream size : 2.08 GiB (91%)
Codec configuration box : avcC

Audio
ID : 1
Format : AAC LC
Format/Info : Advanced Audio
Codec ID : mp4a-40-2
Duration : 3 h 13 min
Bit rate mode : Variable
Bit rate : 132 kb/s
Maximum bit rate : 462 kb/s
Channel(s) : 2 channels
Channel layout : L R
Sampling rate : 48.0 kHz
Frame rate : 46.875 FPS
Compression mode : Lossy
Stream size : 182 MiB (8%)
Language : English

 

Audio
ID : 1
Format : AAC LC
Format/Info : Advanced Audio
Codec ID : mp4a-40-2
Duration : 3 h 13 min
Bit rate mode : Variable
Bit rate : 132 kb/s
Maximum bit rate : 462 kb/s
Channel(s) : 2 channels
Channel layout : L R
Sampling rate : 48.0 kHz
Frame rate : 46.875 FPS
Compression mode : Lossy
Stream size : 182 MiB (8%)
Language : English

https://dx-tv.com/

You May Also Like

1 Comment

Leave a Reply

Your email address will not be published. Required fields are marked *

This site uses Akismet to reduce spam. Learn how your comment data is processed.