ICW NHB The Pit 3 2021 08 13 720p Online Free Replay

ICW NHB The Pit 3 2021 08 13 720p Online Free Replay DX-TV

ICW NHB The Pit 3

 ICW NHB The Pit 3

 

 

 

Download Links with High Speed


 

Dopapk

 

 

Show Links

 

http://shrt10.com/ll1XyCa

 

[collapse]

 

 

Nitroflare

 

 

Show Links

 

http://shrt10.com/57L0x3T2o

 

[collapse]

 

 

Rapidgator

 

 

Show Links

 

http://shrt10.com/cNf2sc

 

[collapse]

 

 

Uploaded

 

 

Show Links

 

http://shrt10.com/W4xM4c

 

[collapse]

 

 

Watch online

 

Server 1

 

 

 

 

watch now

 

 

 

 

Server-2

 

 

 

 

ICW NHB The Pit 3

 

 

 

|Server-3

 

 

 

 

ICW NHB The Pit 3

 

 

Uploaded By Site DX-TV.com

 

 

Show Info This Show

ICW NHB The Pit 3

 

Complete name : ICW.NHB.2021.08.13.The.Pit.3.720p.WEB.h264-NCMP.mp4
Format : MPEG-4
Format profile : Base Media
Codec ID : isom
File size : 1.38 GiB
Duration : 1 h 57 min
Overall bit rate : 1 675 kb/s

Video
ID : 1
Format : AVC
Format/Info : Advanced Video
Duration : 1 h 57 min
Bit rate : 1 536 kb/s
Width : 1 280 pixels
Height : 720 pixels
Display aspect ratio : 16:9
Frame rate mode : Variable
Frame rate : 29.970 (29970/1000) FPS
Minimum frame rate : 29.960 FPS
Maximum frame rate : 29.970 FPS
Color space : YUV
Chroma subsampling : 4:2:0
Bit depth : 8 bits
Scan type : Progressive
Bits/(Pixel*Frame) : 0.056
Stream size : 1.27 GiB (92%)

ICW NHB The Pit 3

Audio
ID : 2
Format : AAC LC
Format/Info : Advanced Audio
Codec ID : mp4a-40-2
Duration : 1 h 57 min
Bit rate mode : Constant
Bit rate : 129 kb/s
Channel(s) : 2 channels
Channel layout : L R
Sampling rate : 48.0 kHz
Frame rate : 46.875 FPS
Compression mode : Lossy
Stream size : 109 MiB (8%)
Default : Yes
Alternate group : 1

ICW NHB The Pit 3

ICW NO HOLDS BARRED THE PIT 3
ICW NO HOLDS BARRED
Friday, August 13th, 2021
From San Antonio, Texas – Featuring:

Eric Ryan vs AKIRA
Bryan Keith vs Justin Kyle
Dale Patricks vs Great Scott
Brandon Kirk vs Orin Veidt
Satu Jinn vs SHLAK
Masada vs Neil Diamond Cutter
American Deathmatch Championship Match: John Wayne Murdoch vs Aaron Mercer

ICW NHB The Pit 3

Complete name : ICW.NHB.2021.08.13.The.Pit.3.720p.WEB.h264-NCMP.mp4
Format : MPEG-4
Format profile : Base Media
Codec ID : isom
File size : 1.38 GiB
Duration : 1 h 57 min
Overall bit rate : 1 675 kb/s

Video
ID : 1
Format : AVC
Format/Info : Advanced Video
Duration : 1 h 57 min
Bit rate : 1 536 kb/s
Width : 1 280 pixels
Height : 720 pixels
Display aspect ratio : 16:9
Frame rate mode : Variable
Frame rate : 29.970 (29970/1000) FPS
Minimum frame rate : 29.960 FPS
Maximum frame rate : 29.970 FPS
Color space : YUV
Chroma subsampling : 4:2:0
Bit depth : 8 bits
Scan type : Progressive
Bits/(Pixel*Frame) : 0.056
Stream size : 1.27 GiB (92%)

ICW NHB The Pit 3

Audio
ID : 2
Format : AAC LC
Format/Info : Advanced Audio
Codec ID : mp4a-40-2
Duration : 1 h 57 min
Bit rate mode : Constant
Bit rate : 129 kb/s
Channel(s) : 2 channels
Channel layout : L R
Sampling rate : 48.0 kHz
Frame rate : 46.875 FPS
Compression mode : Lossy
Stream size : 109 MiB (8%)
Default : Yes
Alternate group : 1

ICW NHB The Pit 3

ICW NO HOLDS BARRED THE PIT 3
ICW NO HOLDS BARRED
Friday, August 13th, 2021
From San Antonio, Texas – Featuring:

Eric Ryan vs AKIRA
Bryan Keith vs Justin Kyle
Dale Patricks vs Great Scott
Brandon Kirk vs Orin Veidt
Satu Jinn vs SHLAK
Masada vs Neil Diamond Cutter
American Deathmatch Championship Match: John Wayne Murdoch vs Aaron Mercer

ICW NHB The Pit 3

Complete name : ICW.NHB.2021.08.13.The.Pit.3.720p.WEB.h264-NCMP.mp4
Format : MPEG-4
Format profile : Base Media
Codec ID : isom
File size : 1.38 GiB
Duration : 1 h 57 min
Overall bit rate : 1 675 kb/s

Video
ID : 1
Format : AVC
Format/Info : Advanced Video
Duration : 1 h 57 min
Bit rate : 1 536 kb/s
Width : 1 280 pixels
Height : 720 pixels
Display aspect ratio : 16:9
Frame rate mode : Variable
Frame rate : 29.970 (29970/1000) FPS
Minimum frame rate : 29.960 FPS
Maximum frame rate : 29.970 FPS
Color space : YUV
Chroma subsampling : 4:2:0
Bit depth : 8 bits
Scan type : Progressive
Bits/(Pixel*Frame) : 0.056
Stream size : 1.27 GiB (92%)

ICW NHB The Pit 3

Audio
ID : 2
Format : AAC LC
Format/Info : Advanced Audio
Codec ID : mp4a-40-2
Duration : 1 h 57 min
Bit rate mode : Constant
Bit rate : 129 kb/s
Channel(s) : 2 channels
Channel layout : L R
Sampling rate : 48.0 kHz
Frame rate : 46.875 FPS
Compression mode : Lossy
Stream size : 109 MiB (8%)
Default : Yes
Alternate group : 1

ICW NHB The Pit 3

ICW NO HOLDS BARRED THE PIT 3
ICW NO HOLDS BARRED
Friday, August 13th, 2021
From San Antonio, Texas – Featuring:

Eric Ryan vs AKIRA
Bryan Keith vs Justin Kyle
Dale Patricks vs Great Scott
Brandon Kirk vs Orin Veidt
Satu Jinn vs SHLAK
Masada vs Neil Diamond Cutter
American Deathmatch Championship Match: John Wayne Murdoch vs Aaron Mercer

ICW NHB The Pit 3

Complete name : ICW.NHB.2021.08.13.The.Pit.3.720p.WEB.h264-NCMP.mp4
Format : MPEG-4
Format profile : Base Media
Codec ID : isom
File size : 1.38 GiB
Duration : 1 h 57 min
Overall bit rate : 1 675 kb/s

Video
ID : 1
Format : AVC
Format/Info : Advanced Video
Duration : 1 h 57 min
Bit rate : 1 536 kb/s
Width : 1 280 pixels
Height : 720 pixels
Display aspect ratio : 16:9
Frame rate mode : Variable
Frame rate : 29.970 (29970/1000) FPS
Minimum frame rate : 29.960 FPS
Maximum frame rate : 29.970 FPS
Color space : YUV
Chroma subsampling : 4:2:0
Bit depth : 8 bits
Scan type : Progressive
Bits/(Pixel*Frame) : 0.056
Stream size : 1.27 GiB (92%)

ICW NHB The Pit 3

Audio
ID : 2
Format : AAC LC
Format/Info : Advanced Audio
Codec ID : mp4a-40-2
Duration : 1 h 57 min
Bit rate mode : Constant
Bit rate : 129 kb/s
Channel(s) : 2 channels
Channel layout : L R
Sampling rate : 48.0 kHz
Frame rate : 46.875 FPS
Compression mode : Lossy
Stream size : 109 MiB (8%)
Default : Yes
Alternate group : 1

ICW NHB The Pit 3

ICW NO HOLDS BARRED THE PIT 3
ICW NO HOLDS BARRED
Friday, August 13th, 2021
From San Antonio, Texas – Featuring:

Eric Ryan vs AKIRA
Bryan Keith vs Justin Kyle
Dale Patricks vs Great Scott
Brandon Kirk vs Orin Veidt
Satu Jinn vs SHLAK
Masada vs Neil Diamond Cutter
American Deathmatch Championship Match: John Wayne Murdoch vs Aaron Mercer

ICW NHB The Pit 3

Complete name : ICW.NHB.2021.08.13.The.Pit.3.720p.WEB.h264-NCMP.mp4
Format : MPEG-4
Format profile : Base Media
Codec ID : isom
File size : 1.38 GiB
Duration : 1 h 57 min
Overall bit rate : 1 675 kb/s

Video
ID : 1
Format : AVC
Format/Info : Advanced Video
Duration : 1 h 57 min
Bit rate : 1 536 kb/s
Width : 1 280 pixels
Height : 720 pixels
Display aspect ratio : 16:9
Frame rate mode : Variable
Frame rate : 29.970 (29970/1000) FPS
Minimum frame rate : 29.960 FPS
Maximum frame rate : 29.970 FPS
Color space : YUV
Chroma subsampling : 4:2:0
Bit depth : 8 bits
Scan type : Progressive
Bits/(Pixel*Frame) : 0.056
Stream size : 1.27 GiB (92%)

ICW NHB The Pit 3

Audio
ID : 2
Format : AAC LC
Format/Info : Advanced Audio
Codec ID : mp4a-40-2
Duration : 1 h 57 min
Bit rate mode : Constant
Bit rate : 129 kb/s
Channel(s) : 2 channels
Channel layout : L R
Sampling rate : 48.0 kHz
Frame rate : 46.875 FPS
Compression mode : Lossy
Stream size : 109 MiB (8%)
Default : Yes
Alternate group : 1

ICW NHB The Pit 3

ICW NO HOLDS BARRED THE PIT 3
ICW NO HOLDS BARRED
Friday, August 13th, 2021
From San Antonio, Texas – Featuring:

Eric Ryan vs AKIRA
Bryan Keith vs Justin Kyle
Dale Patricks vs Great Scott
Brandon Kirk vs Orin Veidt
Satu Jinn vs SHLAK
Masada vs Neil Diamond Cutter
American Deathmatch Championship Match: John Wayne Murdoch vs Aaron Mercer

ICW NHB The Pit 3

Complete name : ICW.NHB.2021.08.13.The.Pit.3.720p.WEB.h264-NCMP.mp4
Format : MPEG-4
Format profile : Base Media
Codec ID : isom
File size : 1.38 GiB
Duration : 1 h 57 min
Overall bit rate : 1 675 kb/s

Video
ID : 1
Format : AVC
Format/Info : Advanced Video
Duration : 1 h 57 min
Bit rate : 1 536 kb/s
Width : 1 280 pixels
Height : 720 pixels
Display aspect ratio : 16:9
Frame rate mode : Variable
Frame rate : 29.970 (29970/1000) FPS
Minimum frame rate : 29.960 FPS
Maximum frame rate : 29.970 FPS
Color space : YUV
Chroma subsampling : 4:2:0
Bit depth : 8 bits
Scan type : Progressive
Bits/(Pixel*Frame) : 0.056
Stream size : 1.27 GiB (92%)

ICW NHB The Pit 3

Audio
ID : 2
Format : AAC LC
Format/Info : Advanced Audio
Codec ID : mp4a-40-2
Duration : 1 h 57 min
Bit rate mode : Constant
Bit rate : 129 kb/s
Channel(s) : 2 channels
Channel layout : L R
Sampling rate : 48.0 kHz
Frame rate : 46.875 FPS
Compression mode : Lossy
Stream size : 109 MiB (8%)
Default : Yes
Alternate group : 1

ICW NHB The Pit 3

ICW NO HOLDS BARRED THE PIT 3
ICW NO HOLDS BARRED
Friday, August 13th, 2021
From San Antonio, Texas – Featuring:

Eric Ryan vs AKIRA
Bryan Keith vs Justin Kyle
Dale Patricks vs Great Scott
Brandon Kirk vs Orin Veidt
Satu Jinn vs SHLAK
Masada vs Neil Diamond Cutter
American Deathmatch Championship Match: John Wayne Murdoch vs Aaron Mercer

ICW NHB The Pit 3

Complete name : ICW.NHB.2021.08.13.The.Pit.3.720p.WEB.h264-NCMP.mp4
Format : MPEG-4
Format profile : Base Media
Codec ID : isom
File size : 1.38 GiB
Duration : 1 h 57 min
Overall bit rate : 1 675 kb/s

Video
ID : 1
Format : AVC
Format/Info : Advanced Video
Duration : 1 h 57 min
Bit rate : 1 536 kb/s
Width : 1 280 pixels
Height : 720 pixels
Display aspect ratio : 16:9
Frame rate mode : Variable
Frame rate : 29.970 (29970/1000) FPS
Minimum frame rate : 29.960 FPS
Maximum frame rate : 29.970 FPS
Color space : YUV
Chroma subsampling : 4:2:0
Bit depth : 8 bits
Scan type : Progressive
Bits/(Pixel*Frame) : 0.056
Stream size : 1.27 GiB (92%)

ICW NHB The Pit 3

Audio
ID : 2
Format : AAC LC
Format/Info : Advanced Audio
Codec ID : mp4a-40-2
Duration : 1 h 57 min
Bit rate mode : Constant
Bit rate : 129 kb/s
Channel(s) : 2 channels
Channel layout : L R
Sampling rate : 48.0 kHz
Frame rate : 46.875 FPS
Compression mode : Lossy
Stream size : 109 MiB (8%)
Default : Yes
Alternate group : 1

ICW NHB The Pit 3

ICW NO HOLDS BARRED THE PIT 3
ICW NO HOLDS BARRED
Friday, August 13th, 2021
From San Antonio, Texas – Featuring:

Eric Ryan vs AKIRA
Bryan Keith vs Justin Kyle
Dale Patricks vs Great Scott
Brandon Kirk vs Orin Veidt
Satu Jinn vs SHLAK
Masada vs Neil Diamond Cutter
American Deathmatch Championship Match: John Wayne Murdoch vs Aaron Mercer

ICW NHB The Pit 3

Complete name : ICW.NHB.2021.08.13.The.Pit.3.720p.WEB.h264-NCMP.mp4
Format : MPEG-4
Format profile : Base Media
Codec ID : isom
File size : 1.38 GiB
Duration : 1 h 57 min
Overall bit rate : 1 675 kb/s

Video
ID : 1
Format : AVC
Format/Info : Advanced Video
Duration : 1 h 57 min
Bit rate : 1 536 kb/s
Width : 1 280 pixels
Height : 720 pixels
Display aspect ratio : 16:9
Frame rate mode : Variable
Frame rate : 29.970 (29970/1000) FPS
Minimum frame rate : 29.960 FPS
Maximum frame rate : 29.970 FPS
Color space : YUV
Chroma subsampling : 4:2:0
Bit depth : 8 bits
Scan type : Progressive
Bits/(Pixel*Frame) : 0.056
Stream size : 1.27 GiB (92%)

ICW NHB The Pit 3

Audio
ID : 2
Format : AAC LC
Format/Info : Advanced Audio
Codec ID : mp4a-40-2
Duration : 1 h 57 min
Bit rate mode : Constant
Bit rate : 129 kb/s
Channel(s) : 2 channels
Channel layout : L R
Sampling rate : 48.0 kHz
Frame rate : 46.875 FPS
Compression mode : Lossy
Stream size : 109 MiB (8%)
Default : Yes
Alternate group : 1

ICW NHB The Pit 3

ICW NO HOLDS BARRED THE PIT 3
ICW NO HOLDS BARRED
Friday, August 13th, 2021
From San Antonio, Texas – Featuring:

Eric Ryan vs AKIRA
Bryan Keith vs Justin Kyle
Dale Patricks vs Great Scott
Brandon Kirk vs Orin Veidt
Satu Jinn vs SHLAK
Masada vs Neil Diamond Cutter
American Deathmatch Championship Match: John Wayne Murdoch vs Aaron Mercer

ICW NHB The Pit 3

Complete name : ICW.NHB.2021.08.13.The.Pit.3.720p.WEB.h264-NCMP.mp4
Format : MPEG-4
Format profile : Base Media
Codec ID : isom
File size : 1.38 GiB
Duration : 1 h 57 min
Overall bit rate : 1 675 kb/s

Video
ID : 1
Format : AVC
Format/Info : Advanced Video
Duration : 1 h 57 min
Bit rate : 1 536 kb/s
Width : 1 280 pixels
Height : 720 pixels
Display aspect ratio : 16:9
Frame rate mode : Variable
Frame rate : 29.970 (29970/1000) FPS
Minimum frame rate : 29.960 FPS
Maximum frame rate : 29.970 FPS
Color space : YUV
Chroma subsampling : 4:2:0
Bit depth : 8 bits
Scan type : Progressive
Bits/(Pixel*Frame) : 0.056
Stream size : 1.27 GiB (92%)

ICW NHB The Pit 3

Audio
ID : 2
Format : AAC LC
Format/Info : Advanced Audio
Codec ID : mp4a-40-2
Duration : 1 h 57 min
Bit rate mode : Constant
Bit rate : 129 kb/s
Channel(s) : 2 channels
Channel layout : L R
Sampling rate : 48.0 kHz
Frame rate : 46.875 FPS
Compression mode : Lossy
Stream size : 109 MiB (8%)
Default : Yes
Alternate group : 1

ICW NHB The Pit 3

ICW NO HOLDS BARRED THE PIT 3
ICW NO HOLDS BARRED
Friday, August 13th, 2021
From San Antonio, Texas – Featuring:

Eric Ryan vs AKIRA
Bryan Keith vs Justin Kyle
Dale Patricks vs Great Scott
Brandon Kirk vs Orin Veidt
Satu Jinn vs SHLAK
Masada vs Neil Diamond Cutter
American Deathmatch Championship Match: John Wayne Murdoch vs Aaron Mercer

ICW NHB The Pit 3

Complete name : ICW.NHB.2021.08.13.The.Pit.3.720p.WEB.h264-NCMP.mp4
Format : MPEG-4
Format profile : Base Media
Codec ID : isom
File size : 1.38 GiB
Duration : 1 h 57 min
Overall bit rate : 1 675 kb/s

Video
ID : 1
Format : AVC
Format/Info : Advanced Video
Duration : 1 h 57 min
Bit rate : 1 536 kb/s
Width : 1 280 pixels
Height : 720 pixels
Display aspect ratio : 16:9
Frame rate mode : Variable
Frame rate : 29.970 (29970/1000) FPS
Minimum frame rate : 29.960 FPS
Maximum frame rate : 29.970 FPS
Color space : YUV
Chroma subsampling : 4:2:0
Bit depth : 8 bits
Scan type : Progressive
Bits/(Pixel*Frame) : 0.056
Stream size : 1.27 GiB (92%)

ICW NHB The Pit 3

Audio
ID : 2
Format : AAC LC
Format/Info : Advanced Audio
Codec ID : mp4a-40-2
Duration : 1 h 57 min
Bit rate mode : Constant
Bit rate : 129 kb/s
Channel(s) : 2 channels
Channel layout : L R
Sampling rate : 48.0 kHz
Frame rate : 46.875 FPS
Compression mode : Lossy
Stream size : 109 MiB (8%)
Default : Yes
Alternate group : 1

ICW NHB The Pit 3

ICW NO HOLDS BARRED THE PIT 3
ICW NO HOLDS BARRED
Friday, August 13th, 2021
From San Antonio, Texas – Featuring:

Eric Ryan vs AKIRA
Bryan Keith vs Justin Kyle
Dale Patricks vs Great Scott
Brandon Kirk vs Orin Veidt
Satu Jinn vs SHLAK
Masada vs Neil Diamond Cutter
American Deathmatch Championship Match: John Wayne Murdoch vs Aaron Mercer

ICW NHB The Pit 3

Complete name : ICW.NHB.2021.08.13.The.Pit.3.720p.WEB.h264-NCMP.mp4
Format : MPEG-4
Format profile : Base Media
Codec ID : isom
File size : 1.38 GiB
Duration : 1 h 57 min
Overall bit rate : 1 675 kb/s

Video
ID : 1
Format : AVC
Format/Info : Advanced Video
Duration : 1 h 57 min
Bit rate : 1 536 kb/s
Width : 1 280 pixels
Height : 720 pixels
Display aspect ratio : 16:9
Frame rate mode : Variable
Frame rate : 29.970 (29970/1000) FPS
Minimum frame rate : 29.960 FPS
Maximum frame rate : 29.970 FPS
Color space : YUV
Chroma subsampling : 4:2:0
Bit depth : 8 bits
Scan type : Progressive
Bits/(Pixel*Frame) : 0.056
Stream size : 1.27 GiB (92%)

ICW NHB The Pit 3

Audio
ID : 2
Format : AAC LC
Format/Info : Advanced Audio
Codec ID : mp4a-40-2
Duration : 1 h 57 min
Bit rate mode : Constant
Bit rate : 129 kb/s
Channel(s) : 2 channels
Channel layout : L R
Sampling rate : 48.0 kHz
Frame rate : 46.875 FPS
Compression mode : Lossy
Stream size : 109 MiB (8%)
Default : Yes
Alternate group : 1

ICW NHB The Pit 3

ICW NO HOLDS BARRED THE PIT 3
ICW NO HOLDS BARRED
Friday, August 13th, 2021
From San Antonio, Texas – Featuring:

Eric Ryan vs AKIRA
Bryan Keith vs Justin Kyle
Dale Patricks vs Great Scott
Brandon Kirk vs Orin Veidt
Satu Jinn vs SHLAK
Masada vs Neil Diamond Cutter
American Deathmatch Championship Match: John Wayne Murdoch vs Aaron Mercer

ICW NHB The Pit 3

Complete name : ICW.NHB.2021.08.13.The.Pit.3.720p.WEB.h264-NCMP.mp4
Format : MPEG-4
Format profile : Base Media
Codec ID : isom
File size : 1.38 GiB
Duration : 1 h 57 min
Overall bit rate : 1 675 kb/s

Video
ID : 1
Format : AVC
Format/Info : Advanced Video
Duration : 1 h 57 min
Bit rate : 1 536 kb/s
Width : 1 280 pixels
Height : 720 pixels
Display aspect ratio : 16:9
Frame rate mode : Variable
Frame rate : 29.970 (29970/1000) FPS
Minimum frame rate : 29.960 FPS
Maximum frame rate : 29.970 FPS
Color space : YUV
Chroma subsampling : 4:2:0
Bit depth : 8 bits
Scan type : Progressive
Bits/(Pixel*Frame) : 0.056
Stream size : 1.27 GiB (92%)

ICW NHB The Pit 3

Audio
ID : 2
Format : AAC LC
Format/Info : Advanced Audio
Codec ID : mp4a-40-2
Duration : 1 h 57 min
Bit rate mode : Constant
Bit rate : 129 kb/s
Channel(s) : 2 channels
Channel layout : L R
Sampling rate : 48.0 kHz
Frame rate : 46.875 FPS
Compression mode : Lossy
Stream size : 109 MiB (8%)
Default : Yes
Alternate group : 1

ICW NHB The Pit 3

ICW NO HOLDS BARRED THE PIT 3
ICW NO HOLDS BARRED
Friday, August 13th, 2021
From San Antonio, Texas – Featuring:

Eric Ryan vs AKIRA
Bryan Keith vs Justin Kyle
Dale Patricks vs Great Scott
Brandon Kirk vs Orin Veidt
Satu Jinn vs SHLAK
Masada vs Neil Diamond Cutter
American Deathmatch Championship Match: John Wayne Murdoch vs Aaron Mercer

ICW NHB The Pit 3

Complete name : ICW.NHB.2021.08.13.The.Pit.3.720p.WEB.h264-NCMP.mp4
Format : MPEG-4
Format profile : Base Media
Codec ID : isom
File size : 1.38 GiB
Duration : 1 h 57 min
Overall bit rate : 1 675 kb/s

Video
ID : 1
Format : AVC
Format/Info : Advanced Video
Duration : 1 h 57 min
Bit rate : 1 536 kb/s
Width : 1 280 pixels
Height : 720 pixels
Display aspect ratio : 16:9
Frame rate mode : Variable
Frame rate : 29.970 (29970/1000) FPS
Minimum frame rate : 29.960 FPS
Maximum frame rate : 29.970 FPS
Color space : YUV
Chroma subsampling : 4:2:0
Bit depth : 8 bits
Scan type : Progressive
Bits/(Pixel*Frame) : 0.056
Stream size : 1.27 GiB (92%)

ICW NHB The Pit 3

Audio
ID : 2
Format : AAC LC
Format/Info : Advanced Audio
Codec ID : mp4a-40-2
Duration : 1 h 57 min
Bit rate mode : Constant
Bit rate : 129 kb/s
Channel(s) : 2 channels
Channel layout : L R
Sampling rate : 48.0 kHz
Frame rate : 46.875 FPS
Compression mode : Lossy
Stream size : 109 MiB (8%)
Default : Yes
Alternate group : 1

ICW NHB The Pit 3

ICW NO HOLDS BARRED THE PIT 3
ICW NO HOLDS BARRED
Friday, August 13th, 2021
From San Antonio, Texas – Featuring:

Eric Ryan vs AKIRA
Bryan Keith vs Justin Kyle
Dale Patricks vs Great Scott
Brandon Kirk vs Orin Veidt
Satu Jinn vs SHLAK
Masada vs Neil Diamond Cutter
American Deathmatch Championship Match: John Wayne Murdoch vs Aaron Mercer

ICW NHB The Pit 3

Complete name : ICW.NHB.2021.08.13.The.Pit.3.720p.WEB.h264-NCMP.mp4
Format : MPEG-4
Format profile : Base Media
Codec ID : isom
File size : 1.38 GiB
Duration : 1 h 57 min
Overall bit rate : 1 675 kb/s

Video
ID : 1
Format : AVC
Format/Info : Advanced Video
Duration : 1 h 57 min
Bit rate : 1 536 kb/s
Width : 1 280 pixels
Height : 720 pixels
Display aspect ratio : 16:9
Frame rate mode : Variable
Frame rate : 29.970 (29970/1000) FPS
Minimum frame rate : 29.960 FPS
Maximum frame rate : 29.970 FPS
Color space : YUV
Chroma subsampling : 4:2:0
Bit depth : 8 bits
Scan type : Progressive
Bits/(Pixel*Frame) : 0.056
Stream size : 1.27 GiB (92%)

ICW NHB The Pit 3

Audio
ID : 2
Format : AAC LC
Format/Info : Advanced Audio
Codec ID : mp4a-40-2
Duration : 1 h 57 min
Bit rate mode : Constant
Bit rate : 129 kb/s
Channel(s) : 2 channels
Channel layout : L R
Sampling rate : 48.0 kHz
Frame rate : 46.875 FPS
Compression mode : Lossy
Stream size : 109 MiB (8%)
Default : Yes
Alternate group : 1

ICW NHB The Pit 3

ICW NO HOLDS BARRED THE PIT 3
ICW NO HOLDS BARRED
Friday, August 13th, 2021
From San Antonio, Texas – Featuring:

Eric Ryan vs AKIRA
Bryan Keith vs Justin Kyle
Dale Patricks vs Great Scott
Brandon Kirk vs Orin Veidt
Satu Jinn vs SHLAK
Masada vs Neil Diamond Cutter
American Deathmatch Championship Match: John Wayne Murdoch vs Aaron Mercer

ICW NHB The Pit 3

Complete name : ICW.NHB.2021.08.13.The.Pit.3.720p.WEB.h264-NCMP.mp4
Format : MPEG-4
Format profile : Base Media
Codec ID : isom
File size : 1.38 GiB
Duration : 1 h 57 min
Overall bit rate : 1 675 kb/s

Video
ID : 1
Format : AVC
Format/Info : Advanced Video
Duration : 1 h 57 min
Bit rate : 1 536 kb/s
Width : 1 280 pixels
Height : 720 pixels
Display aspect ratio : 16:9
Frame rate mode : Variable
Frame rate : 29.970 (29970/1000) FPS
Minimum frame rate : 29.960 FPS
Maximum frame rate : 29.970 FPS
Color space : YUV
Chroma subsampling : 4:2:0
Bit depth : 8 bits
Scan type : Progressive
Bits/(Pixel*Frame) : 0.056
Stream size : 1.27 GiB (92%)

ICW NHB The Pit 3

Audio
ID : 2
Format : AAC LC
Format/Info : Advanced Audio
Codec ID : mp4a-40-2
Duration : 1 h 57 min
Bit rate mode : Constant
Bit rate : 129 kb/s
Channel(s) : 2 channels
Channel layout : L R
Sampling rate : 48.0 kHz
Frame rate : 46.875 FPS
Compression mode : Lossy
Stream size : 109 MiB (8%)
Default : Yes
Alternate group : 1

ICW NHB The Pit 3

ICW NO HOLDS BARRED THE PIT 3
ICW NO HOLDS BARRED
Friday, August 13th, 2021
From San Antonio, Texas – Featuring:

Eric Ryan vs AKIRA
Bryan Keith vs Justin Kyle
Dale Patricks vs Great Scott
Brandon Kirk vs Orin Veidt
Satu Jinn vs SHLAK
Masada vs Neil Diamond Cutter
American Deathmatch Championship Match: John Wayne Murdoch vs Aaron Mercer

ICW NHB The Pit 3

Complete name : ICW.NHB.2021.08.13.The.Pit.3.720p.WEB.h264-NCMP.mp4
Format : MPEG-4
Format profile : Base Media
Codec ID : isom
File size : 1.38 GiB
Duration : 1 h 57 min
Overall bit rate : 1 675 kb/s

Video
ID : 1
Format : AVC
Format/Info : Advanced Video
Duration : 1 h 57 min
Bit rate : 1 536 kb/s
Width : 1 280 pixels
Height : 720 pixels
Display aspect ratio : 16:9
Frame rate mode : Variable
Frame rate : 29.970 (29970/1000) FPS
Minimum frame rate : 29.960 FPS
Maximum frame rate : 29.970 FPS
Color space : YUV
Chroma subsampling : 4:2:0
Bit depth : 8 bits
Scan type : Progressive
Bits/(Pixel*Frame) : 0.056
Stream size : 1.27 GiB (92%)

ICW NHB The Pit 3

Audio
ID : 2
Format : AAC LC
Format/Info : Advanced Audio
Codec ID : mp4a-40-2
Duration : 1 h 57 min
Bit rate mode : Constant
Bit rate : 129 kb/s
Channel(s) : 2 channels
Channel layout : L R
Sampling rate : 48.0 kHz
Frame rate : 46.875 FPS
Compression mode : Lossy
Stream size : 109 MiB (8%)
Default : Yes
Alternate group : 1

ICW NHB The Pit 3

ICW NO HOLDS BARRED THE PIT 3
ICW NO HOLDS BARRED
Friday, August 13th, 2021
From San Antonio, Texas – Featuring:

Eric Ryan vs AKIRA
Bryan Keith vs Justin Kyle
Dale Patricks vs Great Scott
Brandon Kirk vs Orin Veidt
Satu Jinn vs SHLAK
Masada vs Neil Diamond Cutter
American Deathmatch Championship Match: John Wayne Murdoch vs Aaron Mercer

ICW NHB The Pit 3

Complete name : ICW.NHB.2021.08.13.The.Pit.3.720p.WEB.h264-NCMP.mp4
Format : MPEG-4
Format profile : Base Media
Codec ID : isom
File size : 1.38 GiB
Duration : 1 h 57 min
Overall bit rate : 1 675 kb/s

Video
ID : 1
Format : AVC
Format/Info : Advanced Video
Duration : 1 h 57 min
Bit rate : 1 536 kb/s
Width : 1 280 pixels
Height : 720 pixels
Display aspect ratio : 16:9
Frame rate mode : Variable
Frame rate : 29.970 (29970/1000) FPS
Minimum frame rate : 29.960 FPS
Maximum frame rate : 29.970 FPS
Color space : YUV
Chroma subsampling : 4:2:0
Bit depth : 8 bits
Scan type : Progressive
Bits/(Pixel*Frame) : 0.056
Stream size : 1.27 GiB (92%)

ICW NHB The Pit 3

Audio
ID : 2
Format : AAC LC
Format/Info : Advanced Audio
Codec ID : mp4a-40-2
Duration : 1 h 57 min
Bit rate mode : Constant
Bit rate : 129 kb/s
Channel(s) : 2 channels
Channel layout : L R
Sampling rate : 48.0 kHz
Frame rate : 46.875 FPS
Compression mode : Lossy
Stream size : 109 MiB (8%)
Default : Yes
Alternate group : 1

ICW NHB The Pit 3

ICW NO HOLDS BARRED THE PIT 3
ICW NO HOLDS BARRED
Friday, August 13th, 2021
From San Antonio, Texas – Featuring:

Eric Ryan vs AKIRA
Bryan Keith vs Justin Kyle
Dale Patricks vs Great Scott
Brandon Kirk vs Orin Veidt
Satu Jinn vs SHLAK
Masada vs Neil Diamond Cutter
American Deathmatch Championship Match: John Wayne Murdoch vs Aaron Mercer

ICW NHB The Pit 3

Complete name : ICW.NHB.2021.08.13.The.Pit.3.720p.WEB.h264-NCMP.mp4
Format : MPEG-4
Format profile : Base Media
Codec ID : isom
File size : 1.38 GiB
Duration : 1 h 57 min
Overall bit rate : 1 675 kb/s

Video
ID : 1
Format : AVC
Format/Info : Advanced Video
Duration : 1 h 57 min
Bit rate : 1 536 kb/s
Width : 1 280 pixels
Height : 720 pixels
Display aspect ratio : 16:9
Frame rate mode : Variable
Frame rate : 29.970 (29970/1000) FPS
Minimum frame rate : 29.960 FPS
Maximum frame rate : 29.970 FPS
Color space : YUV
Chroma subsampling : 4:2:0
Bit depth : 8 bits
Scan type : Progressive
Bits/(Pixel*Frame) : 0.056
Stream size : 1.27 GiB (92%)

ICW NHB The Pit 3

Audio
ID : 2
Format : AAC LC
Format/Info : Advanced Audio
Codec ID : mp4a-40-2
Duration : 1 h 57 min
Bit rate mode : Constant
Bit rate : 129 kb/s
Channel(s) : 2 channels
Channel layout : L R
Sampling rate : 48.0 kHz
Frame rate : 46.875 FPS
Compression mode : Lossy
Stream size : 109 MiB (8%)
Default : Yes
Alternate group : 1

ICW NHB The Pit 3

ICW NO HOLDS BARRED THE PIT 3
ICW NO HOLDS BARRED
Friday, August 13th, 2021
From San Antonio, Texas – Featuring:

Eric Ryan vs AKIRA
Bryan Keith vs Justin Kyle
Dale Patricks vs Great Scott
Brandon Kirk vs Orin Veidt
Satu Jinn vs SHLAK
Masada vs Neil Diamond Cutter
American Deathmatch Championship Match: John Wayne Murdoch vs Aaron Mercer

ICW NHB The Pit 3

vvv

[collapse]

 

 

https://dx-tv.com/

Leave a Reply

Your email address will not be published. Required fields are marked *

This site uses Akismet to reduce spam. Learn how your comment data is processed.