GCW Ready to Die 2020 02 05 720p

GCW Ready to Die 2020 02 05 720p DX-TV

 

 

 

 GCW

 

 

 

 

GCW Ready to Die 2020 02 05 720p

 

 

 

 

 

Complete name : GCW.2020.02.05.Ready.to.Die.2020.720p.mp4
Format : MPEG-4
Format profile : Base Media
Codec ID : isom
File size : 1.87 GiB
Duration : 1 h 24 min
Overall bit rate : 3 169 kb/s

Video
ID : 1
Format : AVC
Duration : 1 h 24 min
Bit rate : 3 001 kb/s
Width : 1 280 pixels
Height : 720 pixels
Display aspect ratio : 16:9
Frame rate mode : Variable
Frame rate : 30.000 FPS
Minimum frame rate : 29.412 FPS
Maximum frame rate : 30.303 FPS
Color space : YUV
Chroma subsampling : 4:2:0
Bit depth : 8 bits
Scan type : Progressive
Bits/(Pixel*Frame) : 0.109
Stream size : 1.77 GiB (95%)
Codec configuration box : avcC

Audio
ID : 2
Format : AAC LC
Codec ID : mp4a-40-2
Duration : 1 h 24 min
Bit rate mode : Constant
Bit rate : 160 kb/s
Channel(s) : 2 channels
Channel layout : L R
Sampling rate : 44.1 kHz
Frame rate : 43.066 FPS (1024 SPF)
Compression mode : Lossy
Stream size : 96.5 MiB (5%)
Title : Track1
Default : Yes
Alternate group : 1

 

 

 

 

 

 

Watch online

 

 

 

 

 

 

 

 

 

 

 

Server 2

 

 

 

 

 

 

 

 

 

 

Server–3

 

 

 

 

 

 

 

 

GCW Ready to Die 2020 02 05 720p

 

 

 

Uploaded By Site DX-TV.com

 

 

 

 

 

1fichier.com 

 

 

DDL.to

 

 

earn4files.com

 

 

rockfile.co

 

 

 

Download with premium account Links 

 

 

nitroflare.com

 

 

rapidgator.net

 

 

 

dx-tv.com