GCW Live Fast Die Young 2020 720p

GCW Live Fast Die Young 2020 720p DX-TV

 

 

GCW Live

 

 

 

 

GCW Live Fast Die Young 2020 720p

 

 

 

 

 

Complete name : GCW.Live.Fast.Die.Young.2020.720p.mp4
Format : MPEG-4
Format profile : Base Media
File size : 1.82 GiB
Duration : 1 h 22 min
Overall bit rate : 3 168 kb/s

Video
ID : 1
Format : AVC
Duration : 1 h 22 min
Bit rate : 3 000 kb/s
Width : 1 280 pixels
Height : 720 pixels
Display aspect ratio : 16:9
Frame rate mode : Variable
Frame rate : 30.000 FPS
Minimum frame rate : 29.412 FPS
Maximum frame rate : 30.303 FPS
Color space : YUV
Chroma subsampling : 4:2:0
Bit depth : 8 bits
Scan type : Progressive
Bits/(Pixel*Frame) : 0.109
Stream size : 1.72 GiB (95%)

Audio
ID : 2
Format : AAC LC
Codec ID : mp4a-40-2
Duration : 1 h 22 min
Bit rate mode : Constant
Bit rate : 160 kb/s
Channel(s) : 2 channels
Channel layout : L R
Sampling rate : 44.1 kHz
Frame rate : 43.066 FPS (1024 SPF)
Compression mode : Lossy
Stream size : 94.5 MiB (5%)
Title : Track1
Default : Yes
Alternate group : 1

 

 

 

Watch online

 

 

Server 1

 

 

 

 

 

 

 

 

 

 

 

Server 2

 

 

 

 

 

 

 

 

 

 

Server–3

 

 

 

 


 

 

 

GCW Live Fast Die Young 2020 720p

 

 

 

Uploaded By Site DX-TV.com

 

 

 

 

1fichier.com 

 

 

DDL.to

 

 

dl.free.fr

 

 

earn4files.com

 

 

filerio.in

 

 

rockfile.co

 

 

 

Download with premium account Links 

 

 

nitroflare.com

 

 

rapidgator.net

 

 

Uploaded.net

 

 

 

dx-tv.com