WWE Backstage 2020 02 04 720p

WWE Backstage 2020 02 04 720p DX-TV

 

 

 UFC

 

 

 

 

 

 

 

 

WWE Backstage 2020 02 04 720p

 

 

WE Backstage

 

Complete name : WWE.Backstage.2020.02.04.720p.WEB.h264-HEEL.mp4
Format : MPEG-4
Format profile : Base Media
File size : 2.10 GiB
Duration : 45 min 24 s
Overall bit rate mode : Constant
Overall bit rate : 6 606 kb/s
Law rating : None
Writing application : Lavf58.32.104

Video
ID : 1
Format : AVC
Duration : 45 min 24 s
Bit rate mode : Constant
Bit rate : 6 464 kb/s
Width : 1 280 pixels
Height : 720 pixels
Display aspect ratio : 16:9
Frame rate mode : Variable
Frame rate : 59.940 (60000/1001) FPS
Minimum frame rate : 48.596 FPS
Maximum frame rate : 60.484 FPS
Standard : Component
Color space : YUV
Chroma subsampling : 4:2:0
Bit depth : 8 bits
Scan type : Progressive
Bits/(Pixel*Frame) : 0.117
Stream size : 2.05 GiB (98%)
Color range : Limited
Color primaries : BT.709
Transfer characteristics : BT.709
Matrix coefficients : BT.709
Codec configuration box : avcC

Audio
ID : 2
Format : AAC LC
Format/Info : Advanced Audio Codec Low Complexity
Codec ID : mp4a-40-2
Duration : 45 min 24 s
Source duration : 45 min 24 s
Bit rate mode : Constant
Bit rate : 125 kb/s
Channel(s) : 2 channels
Channel layout : L R
Sampling rate : 48.0 kHz
Frame rate : 46.875 FPS (1024 SPF)
Compression mode : Lossy
Stream size : 40.7 MiB (2%)
Source stream size : 40.7 MiB (2%)
Default : Yes
Alternate group : 1
mdhd_Duration : 2724096

Text #1
ID : 1-CC1
Format : EIA-608
Muxing mode : SCTE 128 / DTVCC Transport
Muxing mode, more info : Muxed in Video #1
Duration : 45 min 24 s
Bit rate mode : Constant
Stream size : 0.00 Byte (0%)
CaptionServiceName : CC1

 

 

 

 

 

 

Watch online

 

 

Waiting finish converting video

 

 

Server 1

 

 

 

 

 


 

 

 

 

Server 2

 

 

 

 

 

 

 

 

 

 

Server–3

 

 

 

 

 

 

 

 

 

WWE Backstage 2020 02 04 720p

 

 

 

Uploaded By Site DX-TV.com

 

 

 

 

1fichier.com 

 

 

DDL.to

 

 

dl.free.fr

 

 

earn4files.com

 

 

filerio.in

 

 

rockfile.co

 

 

 

Download with premium account Links 

 

 

nitroflare.com

 

 

rapidgator.net

 

 

Uploaded.net

 

 

 

dx-tv.com

WE need Staff/ Uploader/ Capper best quality For DX-TV
For More INFO Send PM for Admin on Email : [email protected]

X