Free WWE NXT UK 2019 12 05 1080p

Free WWE NXT UK 2019 12 05 1080p DX-TV

 

 

WWE RAW

 

 

 

 

dx-tv.com

 

 

 

 

Free WWE NXT UK 2019 12 05 1080p

 

 

 

 

 

Complete name : WWE.NXT.UK.2019.12.05.1080p.WEB.h264-HEEL.mp4
Format : MPEG-4
Format profile : Base Media
File size : 3.43 GiB
Duration : 1 h 1 min
Overall bit rate mode : Variable
Overall bit rate : 7 955 kb/s
Writing application : Lavf58.32.104

Video
ID : 1
Format : AVC
Duration : 1 h 1 min
Bit rate : 7 808 kb/s
Width : 1 920 pixels
Height : 1 080 pixels
Display aspect ratio : 16:9
Frame rate mode : Constant
Frame rate : 30.000 FPS
Color space : YUV
Chroma subsampling : 4:2:0
Bit depth : 8 bits
Scan type : Progressive
Bits/(Pixel*Frame) : 0.126
Stream size : 3.34 GiB (97%)

Audio
ID : 2
Format : AAC LC
Codec ID : mp4a-40-2
Duration : 1 h 1 min
Bit rate mode : Variable
Bit rate : 192 kb/s
Maximum bit rate : 394 kb/s
Channel(s) : 2 channels
Channel layout : L R
Sampling rate : 48.0 kHz
Frame rate : 46.875 FPS (1024 SPF)
Compression mode : Lossy
Stream size : 85.0 MiB (2%)
Default : Yes
Alternate group : 1

 

 

 

 

 

 

Watch online

 

 

Waiting finish converting video

 

 

Server 1

 

 

 

 

 

 

 

 

 

 

 

 

 

Server 2

 

 

 

 

 

 

 

 

 

 

Server–3

 

 

 

 

 

 

 

 

 

 

Server 4

 

 

 

 

 

 

 

 

 

 

Uploaded By Site DX-TV.com

 

 

 

 

 

Free WWE NXT UK 2019 12 05 1080p

 

 

 

 

 

Recommended For Free with slow speed

 

 

 

 

1fichier.com

 

 

 

 

dl.free.fr

 

 

 

 

 

Download with high speed Premium account

 

 

 

nitroflare.com

 

 

 

rapidgator.net

 

 

 

uploaded.net

 

 

 

 

 

 

 

 37 total views,  1 views today

%d bloggers like this:
Optimized with PageSpeed Ninja