Watch Free WWE NXT UK 2019 12 05 720p

Watch Free WWE NXT UK 2019 12 05 720p DX-TV

 

 

WWE NXT

 

 

 

 

dx-tv.com

 

 

 

 

Watch Free WWE NXT UK 2019 12 05 720p

 

 

 

 

Complete name : C:\DX\WWE\Downloading\WWE.NXT.UK.2019.12.05.720p.Hi.WEB.h264-HEEL.mp4
Format : MPEG-4
Format profile : Base Media
Codec ID : isom (isom/iso2/avc1/mp41)
File size : 1.52 GiB
Duration : 1 h 1 min
Overall bit rate mode : Variable
Overall bit rate : 3 540 kb/s
Writing application : Lavf58.32.104

Video
ID : 1
Format : AVC
Duration : 1 h 1 min
Bit rate : 3 372 kb/s
Width : 1 280 pixels
Height : 720 pixels
Display aspect ratio : 16:9
Frame rate mode : Constant
Frame rate : 30.000 FPS
Color space : YUV
Chroma subsampling : 4:2:0
Bit depth : 8 bits
Scan type : Progressive
Bits/(Pixel*Frame) : 0.122
Stream size : 1.44 GiB (94%)

Audio
ID : 2
Format : AAC LC
Codec ID : mp4a-40-2
Duration : 1 h 1 min
Bit rate mode : Variable
Bit rate : 192 kb/s
Maximum bit rate : 394 kb/s
Channel(s) : 2 channels
Channel layout : L R
Sampling rate : 48.0 kHz
Frame rate : 46.875 FPS (1024 SPF)
Compression mode : Lossy
Stream size : 85.0 MiB (5%)
Default : Yes
Alternate group : 1

 

 

 

 

 

 

Watch online

 

 

Server 1

 

 

 

 

 

 

 

 

 

 

 

 

 

Server 2

 

 

 

 

 

 

 

 

 

 

Server–3

 

 

 

 

 

 

 

 

 

 

Server 4

 

 

 

 

 

 

 

 

 

 

Uploaded By Site DX-TV.com

 

 

 

 

 

Watch Free WWE NXT UK 2019 12 05 720p

 

 

 

 

 

Recommended For Free with slow speed

 

 

 

 

1fichier.com

 

 

 

dl.free.fr

 

 

 

katfile.com

 

 

 

 

Download with high speed Premium account

 

 

 

nitroflare.com

 

 

 

rapidgator.net

 

 

 

uploaded.net

 

 

 

 

 

 

 

 31 total views,  1 views today

%d bloggers like this:
Optimized with PageSpeed Ninja