Free Watch WWE Main Event 2019 11 28 1080p

Free Watch Online WWE Main Event 2019 11 28 1080p WEBRip DX-TV

 

 

WWE RAW

 

 

 

 

dx-tv.com

 

 

 

 

Free Watch WWE Main Event 2019 11 28 1080p

 

 

 

 

 

Complete name : WWE.Main.Event.2019.11.28.1080p.WEBRip.h264-HEEL.mp4
Format : MPEG-4
Format profile : Base Media
Codec ID : isom (isom/avc1)
File size : 1.57 GiB
Duration : 44 min 58 s
Overall bit rate mode : Variable
Overall bit rate : 4 987 kb/s

Video
ID : 1
Format : AVC
Format/Info : Advanced Video Codec
Codec ID/Info : Advanced Video Coding
Duration : 44 min 58 s
Bit rate mode : Variable
Bit rate : 4 920 kb/s
Maximum bit rate : 5 000 kb/s
Width : 1 920 pixels
Height : 1 080 pixels
Display aspect ratio : 16:9
Frame rate mode : Variable
Frame rate : 25.000 FPS
Minimum frame rate : 13.889 FPS
Maximum frame rate : 25.050 FPS
Standard : Component
Color space : YUV
Chroma subsampling : 4:2:0
Bit depth : 8 bits
Scan type : Progressive
Bits/(Pixel*Frame) : 0.095
Stream size : 1.55 GiB (99%)
Color range : Limited
Color primaries : BT.709
Transfer characteristics : BT.709
Matrix coefficients : BT.709
Codec configuration box : avcC

Audio
ID : 2
Format : AAC LC SBR
Commercial name : HE-AAC
Format settings : Implicit
Codec ID : mp4a-40-2
Duration : 44 min 58 s
Bit rate mode : Variable
Bit rate : 62.7 kb/s
Maximum bit rate : 68.3 kb/s
Channel(s) : 2 channels
Channel layout : L R
Sampling rate : 48.0 kHz
Frame rate : 23.438 FPS (2048 SPF)
Compression mode : Lossy
Stream size : 20.2 MiB (1%)

 

 

 

 

 

 

Watch online

 

 

Waiting finish converting video

 

 

Server 1

 

 

 

 

 

 

 

 

 

 

 

 

 

Server 2

 

 

 

 

 

 

 

 

 

 

 

 

 

 

 

Uploaded By Site DX-TV.com

 

 

 

 

 

Free Watch WWE Main Event 2019 11 28 1080p

 

 

 

 

 

 

Recommended For Free

 

 

 

 

earn4files.com

 

 

katfile.com

 

 

 

 

Download with high speed Premium account

 

 

 

 

nitroflare.com

 

 

 

 

rapidgator.net

 

 

 

 

uploaded.net

 

 

 

 

 

 

 

 

 

 

Categories

Earn money $25 as per 1000

103