Watch WWE NXT UK 2019 11 28 720p

Watch WWE NXT UK 2019 11 28 720p DX-TV

 

 

WWE NXT UK

 

 

 

 

dx-tv.com

 

 

 

 

Watch WWE NXT UK 2019 11 28 720p

 

 

 

 

 

Complete name : WWE.NXT.UK.2019.11.28.720p.Hi.WEB.h264-HEEL.mp4
Format : MPEG-4
Format profile : Base Media
File size : 1.48 GiB
Duration : 59 min 54 s
Overall bit rate mode : Variable
Overall bit rate : 3 544 kb/s
Writing application : Lavf58.32.104

Video
ID : 1
Format : AVC
Format/Info : Advanced Video Codec
Codec ID/Info : Advanced Video Coding
Duration : 59 min 54 s
Bit rate : 3 372 kb/s
Width : 1 280 pixels
Height : 720 pixels
Display aspect ratio : 16:9
Frame rate mode : Constant
Frame rate : 30.000 FPS
Color space : YUV
Chroma subsampling : 4:2:0
Bit depth : 8 bits
Scan type : Progressive
Bits/(Pixel*Frame) : 0.122
Stream size : 1.40 GiB (94%)
Audio
ID : 2
Format : AAC LC
Format/Info : Advanced Audio Codec Low Complexity
Codec ID : mp4a-40-2
Duration : 59 min 54 s
Bit rate mode : Variable
Bit rate : 192 kb/s
Maximum bit rate : 206 kb/s
Channel(s) : 2 channels
Channel layout : L R
Sampling rate : 48.0 kHz
Frame rate : 46.875 FPS (1024 SPF)
Compression mode : Lossy
Stream size : 82.5 MiB (5%)
Default : Yes
Alternate group : 1

 

 

 

 

 

 

Watch online

 

 

Server 1

 

 

 

 

 

 

 

 

 

 

 

 

 

Server 2

 

 

 

 

 

 

 

 

 

 

 

 

 

 

 

Uploaded By Site DX-TV.com

 

 

 

 

 

Watch WWE NXT UK 2019 11 28 720p

 

 

 

 

 

 

Recommended For Free

 

 

 

 

earn4files.com

 

 

 

katfile.com

 

 

 

 

Download with high speed Premium account

 

 

 

 

nitroflare.com

 

 

rapidgator.net

 

 

 

uploaded.net

 

 

 

 

 

 

 

 

 

 

Categories

Earn money $25 as per 1000

103