Free UFC Fight Night 176 Full Show Online

Watch Free UFC Fight Night 176 Full Show OnlineDX-TV

 

UFC Fight Night 176 Full Show Online

 

 UFC Fight Night 176 Full Show Online

 

Free UFC Fight Night 176 Full Show Online

 

 

 

[su_expand more_text=”Show More Info” less_text=”Close all Info” height=”30″ text_color=”#000000″ link_color=”#e25f8b” link_style=”button” more_icon=”icon: arrow-down” less_icon=”icon: arrow-up”]

 

Complete name : UFC.Fight.Night.176.WEB BY DX-TV.COM.mp4
Format : MPEG-4
Format profile : Base Media
Codec ID : isom
File size : 2.15 GiB
Duration : 4 h 19 min
Overall bit rate mode : Variable
Overall bit rate : 1 187 kb/s
Writing application : Lavf58.12.100

UFC Fight Night 176 Full Show Online

Video
ID : 2
Format : AVC
Format/Info : Advanced
Codec ID : avc1
Codec ID/Info : Advanced
Duration : 4 h 19 min
Bit rate mode : Variable
Bit rate : 1 047 kb/s
Maximum bit rate : 1 069 kb/s
Width : 896 pixels
Height : 504 pixels
Display aspect ratio : 16:9
Frame rate mode : Variable
Frame rate : 30.000 FPS
Standard : NTSC
Color space : YUV
Chroma sub-sampling : 4:2:0
Bit depth : 8 bits
Scan type : Progressive
Bits/(Pixel*Frame) : 0.077
Stream size : 1.90 GiB (88%)
Color range : Limited
Color primaries : BT.709
Transfer characteristics : BT.709
Matrix coefficients : BT.709
Codec configuration box : avcC

UFC Fight Night 176 Full Show Online

Audio
ID : 3
Format : AAC LC
Format/Info : Advanced Audio
Codec ID : mp4a-40-2
Duration : 4 h 19 min
Bit rate mode : Constant
Bit rate : 132 kb/s
Channel(s) : 2 channels
Channel layout : L R
Sampling rate : 48.0 kHz
Frame rate : 46.875 FPS (1024 SPF)
Compression mode : Lossy
Stream size : 244 MiB (11%)
Default : Yes
Alternate group : 1

 

UFC Fight Night 176: Fight card

Main card (BT Sport 1, 1am Sunday)

  • Alistair Overeem vs. Augusto Sakai, Heavyweight
  • Ovince Saint Preux vs. Alonzo Menifield, Light Heavyweight
  • Michel Pereira vs. Zelim Adamaev, Welterweight
  • Brian Kelleher vs. Kevin Natividad, Featherweight
  • Thiago Moises vs. Jalin Turner, Lightweight

Preliminary Card (BT Sport 1, 11pm Saturday)

  • Andre Muniz vs. Bartosz Fabinski, Middleweight
  • Viviane Araujo vs. Montana De La Rosa, Women’s Flyweight
  • Alexandr Romanov vs. Marcos Rogerio de Lima, Heavyweight
  • Cole Smith vs. Hunter Azure, Bantamweight

 

Free UFC Fight Night 176 Full Show Online

 

 

[/su_expand]

 

 

 

Watch online

 

 

[su_expand more_text=”Open Videos Online” less_text=”Close Videos” height=”0″ text_color=”#0859fe” link_color=”#a74a69″ link_style=”button” more_icon=”icon: play” less_icon=”icon: stop”]

 

 

Server 1

 

 

 

 

watch now

 

 

 Fight Night 176 Full Show Online

 

Server-2

 

 

 

watch now

 

 

 

 

Server-3

 

 

 

UFC Fight Night 176 Full Show Online

 

 

 

[/su_expand]
 

 

Uploaded By Site DX-TV.com

 

 

 

Download Links with High Speed   

 

 

[su_expand more_text=”Open Download Links” less_text=”Close all Links” height=”0″ text_color=”#4b9a3e” link_color=”#1b3fa8″ link_style=”button” more_icon=”icon: link” less_icon=”icon: unlink”]
 

Keep2Share

 

 

 

nitroflare.com

 

 

 

rapidgator.net

 

 

 

uploadgig.com

 

 

[/su_expand]
dx-tv.com

 

urlfree.net

Leave a Reply

Your email address will not be published. Required fields are marked *

This site uses Akismet to reduce spam. Learn how your comment data is processed.