AEW All Out 2020 PPV Free Full Show Online

Watch AEW All Out 2020 PPV WEB DX-TV

 

AEW All Out 2020 PPV Free Full Show Online

 

 AEW All Out 2020 PPV Free Full Show

AEW All Out 2020 PPV Free Full Show Online

 

 

 

[su_expand more_text=”Show More Info” less_text=”Close all Info” height=”30″ text_color=”#000000″ link_color=”#e25f8b” link_style=”button” more_icon=”icon: arrow-down” less_icon=”icon: arrow-up”]

 

Complete name : AEW All Out 2020 PPV WEB x264 DX-TV.com.mp4
Format : MPEG-4
Format profile : Base Media
Codec ID : isom
File size : 1.15 GiB
Duration : 3 h 50 min
Overall bit rate : 715 kb/s
Movie name : Ch4 S11
Writing application : Lavf57.48.100
Comment : Recorded By DX-TV.com

AEW All Out 2020 PPV Free Full Show Online

Video
ID : 1
Format : AVC
Codec ID/Info : Advanced
Duration : 3 h 50 min
Bit rate : 608 kb/s
Width : 710 pixels
Height : 400 pixels
Display aspect ratio : 16:9
Original aspect rat : 16:9
Frame rate mode : Variable
Frame rate : 30.000 FPS
Minimum frame rate : 29.412 FPS
Maximum frame rate : 30.303 FPS
Color space : YUV
Chroma subsampling : 4:2:0
Bit depth : 8 bits
Scan type : Progressive
Bits/(Pixel*Frame) : 0.071
Stream size : 1 003 MiB (85%)
Codec configuration box : avcC

 All Out 2020 PPV Free Full Show Online

Audio
ID : 2
Format : AAC LC
Format/Info : Advanced Audio
Codec ID : mp4a-40-2
Duration : 3 h 50 min
Bit rate mode : Constant
Bit rate : 96.0 kb/s
Channel(s) : 2 channels
Channel layout : L R
Sampling rate : 44.1 kHz
Frame rate : 43.066 FPS (1024 SPF)
Compression mode : Lossy
Stream size : 161 MiB (14%)
Default : Yes
Alternate group : 1

 All Out 2020 PPV Free Full Show Online

Text #1
ID : 1-CC1
Format : EIA-608
Muxing mode : SCTE 128 / DTVCC Transport
Muxing mode, more info : Muxed in Video #1
Duration : 3 h 50 min
Bit rate mode : Constant
Stream size : 0.00 Byte (0%)
Caption Service Name : CC1

Text #2
ID : 1-1
Format : EIA-708
Muxing mode : SCTE 128 / DTVCC Transport
Muxing mode, more info : Muxed in Video #1
Duration : 3 h 50 min
Bit rate mode : Constant
Stream size : 0.00 Byte (0%)

 

 

 

AEW All Out 2020 PPV Free Full Show Online

 

 

[/su_expand]

 

 

 

Watch online

 

 

[su_expand more_text=”Open Videos Online” less_text=”Close Videos” height=”0″ text_color=”#0859fe” link_color=”#a74a69″ link_style=”button” more_icon=”icon: play” less_icon=”icon: stop”]

 

 

Server 1

 

 

 

 

watch now

 

 

 

 

Server-2

 

 

 

watch now

 

 

 

 

Server-3

 

 

 

AEW All Out 2020 PPV Free Full Show

 

 

 

[/su_expand]

Uploaded By Site DX-TV.com

 

 

 

Download Links with High Speed   

 

 

[su_expand more_text=”Open Download Links” less_text=”Close all Links” height=”0″ text_color=”#4b9a3e” link_color=”#1b3fa8″ link_style=”button” more_icon=”icon: link” less_icon=”icon: unlink”]

Please not this version 400p low quality but video very good no there is any problem

Keep2Share

 

 

 

nitroflare.com

 

 

 

rapidgator.net

 

 

 

uploadgig.com

 

 

[/su_expand]
dx-tv.com

 

urlfree.net