Free ICW No Holds Barred Volume 6 2020 09 11 online

Watch Free ICW No Holds Barred Volume 6 2020 09 11 online DX-TV

 

ICW No Holds Barred Volume 6 online

 

ICW No Holds Barred Volume 6 online

 

Free ICW No Holds Barred Volume 6 2020 09 11 online

 

 

 

[su_expand more_text=”Show More Info” less_text=”Close all Info” height=”30″ text_color=”#000000″ link_color=”#e25f8b” link_style=”button” more_icon=”icon: arrow-down” less_icon=”icon: arrow-up”]

 

Complete name : ICW No Holds Barred Volume 6 2020 09 11 Web H264 DX-TV.Com.mp4
Format : MPEG-4
Format profile : Base Media
Codec ID : mp42
File size : 2.27 GiB
Duration : 3 h 15 min
Overall bit rate : 1 664 kb/s

ICW No Holds Barred Volume 6 online

Video
ID : 1
Format : AVC
Format/Info : Advanced
Duration : 3 h 15 min
Bit rate : 1 500 kb/s
Width : 720 pixels
Height : 480 pixels
Display aspect ratio : 16:9
aspect rat : 16:9
 rate mode : Variable
 frame rate : 30.000 FPS
Color space : YUV
Chroma : 4:2:0
Bit depth : 8 bits
Scan type : Progressive
Bits/(Pixel*Frame) : 0.145
Stream size : 2.04 GiB (90%)
Color range : Limited
Color primaries : BT.709
Transfer characteristics : BT.709
Matrix coefficients : BT.709
Codec configuration box : avcC

ICW No Holds Barred Volume 6 online

Audio
ID : 2
Format : AAC LC
Format/Info : Advanced Audio
Codec ID : mp4a-40-2
Duration : 3 h 15 min
Bit rate mode : Constant
Bit rate : 160 kb/s
Channel(s) : 2 channels
Channel layout : L R
Sampling rate : 48.0 kHz
Frame rate : 46.875 FPS (1024 SPF)
Compression mode : Lossy
Stream size : 224 MiB (10%)
Title : Stereo
Default : Yes
Alternate group : 1

 

  No Holds Barred Volume 6 online

CONFIRMED FIGHTS –

JOHN WAYNE MURDOCH vs ORIN VEIDT

AKIRA vs ERIC RYAN

JOE GACY vs TONY DEPPEN

SHLAK vs EDDY ONLY

CASANOVA VALENTINE W/RILEY MADISON vs JEFF CANNONBALL

BRANDON KIRK vs ALEX OCEAN

 

ICW No Holds Barred is set to hold two new shows next month in New Jersey. The company, which held Volumes 4 and 5 of its series of No Holds Barred shows earlier this month, took to Twitter to announce that Pitfighter X and No Holds Barred Volume 6 will go down on September 10th and 11th, in Millville, New Jersey.

No matches have yet been announced for the shows, which will be held under a set of COVID-19 guidelines that include mandatory masks, all wrestlers needing a properly documented negative COVID test and more.

 

Free No Holds Barred Volume 6 2020 09 11 online

 

 

[/su_expand]

 

 

 

Watch online

 

 

[su_expand more_text=”Open Videos Online” less_text=”Close Videos” height=”0″ text_color=”#0859fe” link_color=”#a74a69″ link_style=”button” more_icon=”icon: play” less_icon=”icon: stop”]

 

 

Server 1

 

 

 

 

watch now

 

 

 

 

Server-2

 

 

 

watch now

 

 

 

 

Server-3

 

 

 

ICW No Holds Barred Volume 6 online

 

 

 

[/su_expand]
 

 

Uploaded By Site DX-TV.com

 

 

 

Download Links with High Speed   

 

 

[su_expand more_text=”Open Download Links” less_text=”Close all Links” height=”0″ text_color=”#4b9a3e” link_color=”#1b3fa8″ link_style=”button” more_icon=”icon: link” less_icon=”icon: unlink”]
 

 

 

nitroflare.com

 

 

 

rapidgator.net

 

 

 

uploadgig.com

 

 

[/su_expand]
dx-tv.com

 

urlfree.net