Free Bellator 245 Main Card 720p English Online

Watch Free Bellator 245 Main Card 720p WEB English lulz DX-TV

 

Free Bellator 245 Main Card English

 

 

 Free Bellator 245 Main Card 720p English

Free Bellator 245 Main Card 720p English Online

 

 

 

[su_expand more_text=”Show More Info” less_text=”Close all Info” height=”30″ text_color=”#000000″ link_color=”#e25f8b” link_style=”button” more_icon=”icon: arrow-down” less_icon=”icon: arrow-up”]

 

Complete name : Bellator.245.720p.WEB.h264-lulz .mkv
Format : Matroska
Format version : Version 4
File size : 3.14 GiB
Duration : 1 h 46 min
bit rate mode : Variable
Overall bit rate : 4 226 kb/s

Free Bellator 245 Main Card English

Video
ID : 1
Format : AVC
Duration : 1 h 46 min
Bit rate mode : Variable
Bit rate : 4 094 kb/s
Maximum bit rate : 4 500 kb/s
Width : 1 280 pixels
Height : 720 pixels
Display aspect ratio : 16:9
Frame rate mode : Constant
 rate : 59.940 (60000/1001) FPS
Color space : YUV
Chroma : 4:2:0
Bit depth : 8 bits
Scan type : Progressive
Bits/(Pixel*Frame) : 0.074
Stream size : 3.04 GiB (97%)
Default : Yes
Forced : No

Free Bellator 245 Main Card English

Audio
ID : 2
Format : AAC LC
Format/Info : Advanced
Codec ID : A_AAC-2
Duration : 1 h 46 min
Bit rate : 128 kb/s
Channel(s) : 2 channels
Channel layout : L R
Sampling rate : 48.0 kHz
Frame rate : 46.875 FPS (1024 SPF)
Compression mode : Lossy
Stream size : 97.5 MiB (3%)
Default : Yes
Forced : No

 Bellator 245 Main Card English

Cat Zingano vs. Gabrielle Holloway

Zingano brings a pro record of 10-4 to this contest, while Holloway brings a record of 6-5. Zingano weighed in at 145.9 but Holloway came in significantly over at 150.7, forcing this to be a 150 lb. catchweight bout. Holloway has on the blue gloves, black trunks with white trim, and neon green top. Zingano has the silver trunks, black body suit and red gloves. Holloway fights out of Fayetteville, NC. Zingano fights out of San Diego, CA. The referee for this bout is Kevin MacDonald.

Round 1: There’s no glove tap at the start. Holloway immediately tags Zingano with a right hand and Zingano responds by tying her up and tripping her to the ground at 22 seconds. Zingano takes side control and works her way up looking for submission openings. She goes for the arm bar but Holloway slips out and they jump back to the feet. Zingano throws a head kick and shoots Holloway into the fence. Zingano fires off knees at close range. Holloway turns her around at 3:03 but Zingano turns her right back into the fence. Right shoulder strike to the chin from Zingano. She continues to fire off knees and finally gets a body lock takedown at 3:47 to regain side control. Right elbow on top. 10-9 Zingano.

 

Free Bellator 245 Main Card English

Round 2: Zingano lands a body and a leg kick, throws a right, goes for the body lock takedown and almost lets Holloway on top in the process. She recovered the position though and winds up in full guard stacking up Holloway to land short shots to the body. Holloway keeps trying to tie her arms up to avoid the elbows and fists. Two minutes gone. Zingano steps over to half guard and lands a hard elbow. She gets her right leg free and takes full mount with under two minutes left. Another hard elbow on top. Holloway pushes off the fence with her feet to momentarily break free. Zingano transitions to her back looking to get her hooks in. Another dominant 10-9 for Zingano.

 

Free Bellator 245 Main Card 720p English Online

 

 

[/su_expand]

 

 

 

Watch online

 

 

[su_expand more_text=”Open Videos Online” less_text=”Close Videos” height=”0″ text_color=”#0859fe” link_color=”#a74a69″ link_style=”button” more_icon=”icon: play” less_icon=”icon: stop”]

 

 

Server 1

 

I uploaded all links streaming online you can reloading page now

 

 

watch now

 

 

 

 

Server-2

 

 

 

watch now

 

 

 

 

Server-3

 

 

 

Free Bellator 245 Main Card English

 

 

 

[/su_expand]

Uploaded By Site DX-TV.com

 

 

 

Download Links with High Speed   

 

 

[su_expand more_text=”Open Download Links” less_text=”Close all Links” height=”0″ text_color=”#4b9a3e” link_color=”#1b3fa8″ link_style=”button” more_icon=”icon: link” less_icon=”icon: unlink”]

nitroflare.com

 

 

 

rapidgator.net

 

 

 

uploadgig.com

 

 

[/su_expand]
dx-tv.com

 

urlfree.net

Leave a Reply

Your email address will not be published. Required fields are marked *

This site uses Akismet to reduce spam. Learn how your comment data is processed.