Free BJW 2020 08 10 Korakuen Hall 720p

Watch Free BJW 2020 08 10 Korakuen Hall 720p DX-TV

 

Free BJW 2020 08 10

 

Free BJW 2020 08 10

Free BJW 2020 08 10 Korakuen Hall 720p

 

[su_expand more_text=”Show More Info” less_text=”Close all Info” height=”30″ text_color=”#000000″ link_color=”#e25f8b” link_style=”button” more_icon=”icon: arrow-down” less_icon=”icon: arrow-up”]

Name of the event: BJW
Date: 10.08.2020
Promotion: Big Japan Pro-Wrestling
Type: TV-Show
Location: Tokyo, Japan
Arena: Korakuen Hall
Attendance: 375
Broadcast type: Live
 date: 10.08.2020
TV station/network: Samurai! TV

 BJW 2020 08 10 Korakuen Hall 720p

Complete name : BJW.2020.08.10.Korakuen.Hall.720p.Samurai.mp4
Format : MPEG-4
Format profile : Base Media
Codec ID : isom
File size : 1.19 GiB
Duration : 1 h 59 min
Overall bit rate : 1 415 kb/s
Writing application : Lavf58.45.100

Video
ID : 1
Format : AVC
Bit rate : 1 344 kb/s
Width : 1 280 pixels
Height : 720 pixels
Display aspect ratio : 16:9
Frame rate mode : Variable
Frame rate : 29.970 (29970/1000) FPS
Standard : Component
Color space : YUV
Chroma sub sampling : 4:2:0
Bit depth : 8 bits
Scan type : Progressive
Bits/(Pixel*Frame) : 0.049
Stream size : 1.13 GiB (95%)
Color range : Limited
Color primaries : BT.709
Transfer characteristics : BT.709
Matrix coefficients : BT.709
mdhd_Duration : 7196909
Codec configuration box : avcC

Free BJW 2020 08 10 Korakuen Hall 720p

Audio
ID : 2
Format : AAC LC SBR PS
Format/Info : Advanced Audio
Commercial name : HE-AACv2
Format settings : Implicit
Codec ID : mp4a-40-2
Duration : 1 h 59 min
Bit rate mode : Constant
Bit rate : 62.6 kb/s
Channel(s) : 2 channels
Channel layout : C
Sampling rate : 48.0 kHz
Frame rate : 23.438 FPS (2048 SPF)
Compression mode : Lossy
Stream size : 53.7 MiB (4%)
Default : Yes
Alternate group : 1

 

 BJW 2020 08 10 Korakuen Hall 720p

 

:::: Not eligible for the matchguide: dark matches cannot be recommended. ::::
Dark Match
Kosuke Sato & Kota Sekifuda defeat Drew Parker & Masaki Morihiro (7:09)
:::: Not recommended yet. ::::
Solid & Staple Death Match
Kankuro Hoshino & Masaya Takahashi defeat Toshiyuki Sakuda & Yuki Ishikawa (6:59)
:::: Not recommended yet. ::::
BJW Jr. Heavyweight Title Next Challenger Tournament – Semi-Final Match
Tatsuhiko Yoshino defeats Kazuki Hashimoto (6:29)
:::: Not recommended yet. ::::
BJW Jr. Heavyweight Title Next Challenger Tournament – Semi-Final Match
Shinobu defeats Yusuke Kodama (6:51)

Free BJW 2020 08 10 Korakuen Hall 720p

:::: Not recommended yet. ::::
Tag Team Match
Kazumi Kikuta & Ryuichi Kawakami defeat Shigehiro Irie & Takuho Kato (7:37)
:::: Not recommended yet. ::::
Six Man Tag Team Match
Kuma Arashi, Ryota Hama & Yasufumi Nakanoue defeat Hideyoshi Kamitani, Yuji Okabayashi & Yuya Aoki (7:59)
:::: Not recommended yet. ::::
Flourescent Lighttubes & Alpha Death Match
Ryuji Ito & Yankee Two Kenju (Isami Kodaka & Yuko Miyamoto) defeat

Abdullah Kobayashi, Minoru Fujita & Takumi Tsukamoto (12:55)
:::: Not enough votes for total rating. ::::
BJW Strong World Heavyweight Title Match
Daichi Hashimoto (c) defeats Akira Hyodo (17:28)
:::: Not enough votes for total rating. ::::
BJW Tag Team Title Match
Astronauts (Fuminori Abe & Takuya Nomura) defeat Daisuke

Sekimoto & Kohei Sato (c) (19:47) – TITLE CHANGE !!!

 

Free BJW 2020 08 10 Korakuen Hall 720p

 

[/su_expand]

 

 

 

Watch online

 

 

[su_expand more_text=”Open Videos Online” less_text=”Close Videos” height=”0″ text_color=”#0859fe” link_color=”#a74a69″ link_style=”button” more_icon=”icon: play” less_icon=”icon: stop”]

 

 

Server 1

 

 

 

 

watch now

 

 

 

Server-2

 

 

 

watch now

[/su_expand]
 

Uploaded By Site DX-TV.com

 

 

 

Download Links with High Speed   

 

 

[su_expand more_text=”Open Download Links” less_text=”Close all Links” height=”0″ text_color=”#4b9a3e” link_color=”#1b3fa8″ link_style=”button” more_icon=”icon: link” less_icon=”icon: unlink”]

Keep2Share

 

 

 

nitroflare.com

 

 

 

rapidgator.net

 

 

 

uploadgig.com

 

 

[/su_expand]
dx-tv.com

 

urlfree.net

2 Comments

Comments are closed.