Free AEW Dynamite 25 Nov 2020 1080p Full Show DX-TV

Free AEW Dynamite 25 Nov 2020 1080p Full Show DX-TV

AEW Dynamite 25 Nov 2020

 

 AEW Dynamite 25 Nov 2020

 

[su_expand more_text=”Show More Info” less_text=”Close all Info” height=”30″ text_color=”#000000″ link_color=”#e25f8b” link_style=”button” more_icon=”icon: arrow-down” less_icon=”icon: arrow-up”]

 

AEW Dynamite 25 Nov 2020

Complete name : AEW.Dynamite.2020.11.25.1080p.WEB.h264-HEEL.mp4
Format : MPEG-4
Format profile : Base Media
Codec ID : isom
File size : 3.86 GiB
Duration : 2 h 0 min
Overall bit rate mode : Variable
Overall bit rate : 4 610 kb/s
Writing application : Lavf58.63.100

AEW Dynamite 25 Nov 2020

Video
ID : 1
Format : AVC
Duration : 1 h 59 min
Bit rate : 4 342 kb/s
Nominal bit rate : 4 800 kb/s
Width : 1 920 pixels
Height : 1 080 pixels
Display aspect ratio : 16:9
Frame rate mode : Constant
Frame rate : 30.000 FPS
Color space : YUV
Chroma subsampling : 4:2:0
Bit depth : 8 bits
Scan type : Progressive
Bits/(Pixel*Frame) : 0.070
Stream size : 3.64 GiB

 Dynamite 25 Nov 2020

Audio #1
ID : 2
Format : AAC LC
Format/Info : Advanced Audio
Codec ID : mp4a-40-2
Duration : 2 h 0 min
Bit rate mode : Constant
Bit rate : 130 kb/s
Channel(s) : 2 channels
Channel layout : L R
Sampling rate : 48.0 kHz
Frame rate : 46.875 FPS
Compression mode : Lossy
Stream size : 111 MiB (3%)
Language : English
Default : Yes
Alternate group : 1

AEW Dynamite 25 Nov 2020

Audio #2
ID : 3
Format : AAC LC
Format/Info : Advanced Audio
Codec ID : mp4a-40-2
Duration : 1 h 59 min
Bit rate mode : Variable
Bit rate : 129 kb/s
Maximum bit rate : 131 kb/s
Channel(s) : 2 channels
Channel layout : L R
Sampling rate : 48.0 kHz
Frame rate : 46.875 FPS
Compression mode : Lossy
Stream size : 110 MiB
Language : Spanish
Default : No
Alternate group : 1

 Dynamite 25 Nov 2020

 

[/su_expand]

 

 

Watch online

 

 

Server 1

 

 

 

 

 

 

 

 

Server-2

 

 

 

 

 

https://dx-tv.com/watch-aew-dynamite-online-720p-27-may-2020/

 

 

Uploaded By Site DX-TV.com

 

 Dynamite 25 Nov 2020

Download Free Links with normal and high Speed [ more 14 hosts ]  

 

[su_expand more_text=”Show Hosts Info” less_text=”Close all Info” height=”30″ text_color=”#000000″ link_color=”#e25f8b” link_style=”button” more_icon=”icon: arrow-down” less_icon=”icon: arrow-up”]

 

 

hexupload.net – clicknupload.co – www.multiup.org

– uptobox.com – anonfiles.com – userscloud.com – 

 

 

[/su_expand]

 

http://shrt10.com/Ld7khmc
http://shrt10.com/Qpe6aP
http://shrt10.com/jyG43E4C
http://shrt10.com/EM8tN
http://shrt10.com/awZlq
http://shrt10.com/Sw9hP0vlj

 

 

 

 

Free AEW Dynamite 25 Nov 2020

Download Links with premium High Speed   

 

 

 

 

dropapk.to

hhttp://shrt10.com/Z11KVYQ

 

 

nitroflare.com

hhttp://shrt10.com/lYruSnk

 

 

rapidgator.net

hhttp://shrt10.com/uXuW2sVC

 

 

uploaded.net

hhttp://shrt10.com/PT8m4d

 

 

uploadgig.com

hhttp://shrt10.com/wkBB7wk

 

 

Leave a Reply

Your email address will not be published. Required fields are marked *

This site uses Akismet to reduce spam. Learn how your comment data is processed.