Watch Wrestling Online AEW Dynamite 25 11 2020 720 DX-TV

Watch AEW Dynamite 2020 11 25 HDTV NWCHD /720p DX-TV

Watch Wrestling Online AEW

 

 Watch Wrestling Online AEW

 

[su_expand more_text=”Show More Info” less_text=”Close all Info” height=”30″ text_color=”#000000″ link_color=”#e25f8b” link_style=”button” more_icon=”icon: arrow-down” less_icon=”icon: arrow-up”]

 

AEW Dynamite 25 11 2020

 

Complete name : AEW.Dynamite.2020.11.25.HDTV.x264-NWCHD.mp4
Format : MPEG-4
Format profile : Base Media
Codec ID : isom
File size : 1.16 GiB
Duration : 1 h 44 min
Overall bit rate : 1 595 kb/s
Writing application : Lavf58.27.103

Watch Wrestling Online AEW

Video
ID : 1
Format : AVC
Duration : 1 h 44 min
Bit rate : 1 400 kb/s
Width : 704 pixels
Height : 400 pixels
Display aspect ratio : 16:9
Frame rate mode : Variable
Frame rate : 29.970 FPS
Color space : YUV
Chroma subsampling : 4:2:0
Bit depth : 8 bits
Scan type : Progressive
Bits/(Pixel*Frame) : 0.166
Stream size : 1.02 GiB
Color primaries : BT.709
Transfer characteristics : BT.709
Matrix coefficients : BT.709
Codec configuration box : avc

 Wrestling Online AEW

Audio
ID : 2
Format : AAC LC
Format/Info : Advanced Audio
Codec ID : mp4a-40-2
Duration : 1 h 44 min
Bit rate mode : Constant
Bit rate : 192 kb/s
Channel(s) : 2 channels
Channel layout : L R
Sampling rate : 48.0 kHz
Frame rate : 46.875 FPS
Compression mode : Lossy
Stream size : 144 MiB
Title : Stereo
Language : English
Default : Yes
Alternate group : 1

 Wrestling Online AEW

Complete name : AEW.Dynamite.2020.11.25.720p.HDTV.x264-NWCHD.mp4
Format : MPEG-4
Format profile : Base Media
Codec ID : isom
File size : 3.43 GiB
Duration : 1 h 44 min
Overall bit rate : 4 700 kb/s
Writing application : Lavf58.51

Watch Wrestling Online AEW

Video
ID : 1
Format : AVC
Duration : 1 h 44 min
Bit rate : 4 500 kb/s
Width : 1 280 pixels
Height : 720 pixels
Display aspect ratio : 16:9
Frame rate mode : Variable
Frame rate : 29.970 FPS
Color space : YUV
Chroma subsampling : 4:2:0
Bit depth : 8 bits
Scan type : Progressive
Bits/(Pixel*Frame) : 0.163
Color primaries : BT.709
Transfer characteristics : BT.709
Matrix coefficients : BT.709
Codec configuration box : avc

 Wrestling Online AEW

Audio
ID : 2
Format : AAC LC
Format/Info : Advanced Audio
Codec ID : mp4a-40-2
Duration : 1 h 44 min
Bit rate mode : Constant
Bit rate : 192 kb/s
Channel(s) : 2 channels
Channel layout : L R
Sampling rate : 48.0 kHz
Frame rate : 46.875 FPS
Compression mode : Lossy
Stream size : 144 MiB (4%)
Title : Stereo
Language : English
Default : Yes
Alternate group : 1

Watch Wrestling Online AEW

 

[/su_expand]

 

 

Watch online

 

 

Server 1

 

 

 

 

 

 

 

 

Server-2

 

 

 

 

 

 

aew-dynamite-02-09-2020-free-online

 

Uploaded By Site DX-TV.com

 

Watch Wrestling Online AEW

 

 

Download Free Links with normal and high Speed [ more 14 hosts ]  

 

[su_expand more_text=”Show Hosts Info” less_text=”Close all Info” height=”30″ text_color=”#000000″ link_color=”#e25f8b” link_style=”button” more_icon=”icon: arrow-down” less_icon=”icon: arrow-up”]

 

 

hexupload.net – clicknupload.co – www.multiup.org

– uptobox.com – anonfiles.com – userscloud.com – 

 

[/su_expand]

 

400p

http://shrt10.com/fFhhAb2ob
http://shrt10.com/Vc7m0CKD
http://shrt10.com/obRo4j8
http://shrt10.com/w6I2HK
http://shrt10.com/HtE0HU7fa
http://shrt10.com/R87woq0T
http://shrt10.com/o0iG4XxaX
http://shrt10.com/1aHORjC

 

 

 

 

720p

http://shrt10.com/UqrDKx
http://shrt10.com/sd0rNdE
http://shrt10.com/JM2aSl
http://shrt10.com/lEXYA
http://shrt10.com/6EWH5OQp
http://shrt10.com/PqiyTsK78

 

 

 

 

Watch Wrestling Online AEW

Download Links with premium High Speed   

 

 

 

 

dropapk.to

http://shrt10.com/5qBd6
http://shrt10.com/wnnFFFq

 

 

nitroflare.com

http://shrt10.com/dRfHZG4Wn
http://shrt10.com/lYVX97Z

 

 

rapidgator.net

http://shrt10.com/u1td2t
http://shrt10.com/9jxB6QA

 

 

uploaded.net

http://shrt10.com/4fcVZ3hp5
http://shrt10.com/MmWhd9XF

 

 

uploadgig.com

http://shrt10.com/DF6TQnp
http://shrt10.com/WPiwPiQ2M

 

 

Leave a Reply

Your email address will not be published. Required fields are marked *

This site uses Akismet to reduce spam. Learn how your comment data is processed.