Free 1080p Bellator 245 Prelims Full Show

Watch MMA Free 1080p Bellator 245 Prelims Full Show DX-TV

 

Free 1080p Bellator 245 Prelims

 

 Free 1080p Bellator 245 Prelims

 

Free 1080p Bellator 245 Prelims Full Show

 

 

 

[su_expand more_text=”Show More Info” less_text=”Close all Info” height=”30″ text_color=”#000000″ link_color=”#e25f8b” link_style=”button” more_icon=”icon: arrow-down” less_icon=”icon: arrow-up”]

 

Complete name : MMA Bellator 245 Prelims 2020 09 11 1080p WEB H264 DX-TV.COM.mp4
Format : MPEG-4
Format profile : Base Media
Codec ID : isom
File size : 3.88 GiB
Duration : 1 h 52 min
Overall bit rate mode : Variable
Overall bit rate : 4 964 kb/s
Movie name : master.m3u8
Writing application : Lavf57.48.100
Comment : Recorded DX-TV.com

Free 1080p Bellator 245 Prelims

Video
ID : 1
Format : AVC
Duration : 1 h 52 min
Bit rate mode : Variable
Bit rate : 4 863 kb/s
Maximum bit rate : 5 904 kb/s
Width : 1 920 pixels
Height : 1 080 pixels
Display aspect ratio : 16:9
Frame rate mode : Variable
rate : 29.970 (30000/1001) FPS
Standard : NTSC
Color space : YUV
Chroma  : 4:2:0
Bit depth : 8 bits
Scan type : Progressive
Bits/(Pixel*Frame) : 0.078
Stream size : 3.81 GiB (98%)
Color range : Limited
Color primaries : BT.709
Transfer characteristics : BT.709
Matrix coefficients : BT.709
Codec configuration box : avcC

 1080p Bellator 245 Prelims

Audio
ID : 2
Format : AAC LC SBR
Format/Info : Advanced
Commercial name : HE-AAC
Format settings : Implicit
Codec ID : mp4a-40-2
Duration : 1 h 52 min
Bit rate mode : Variable
Bit rate : 96.0 kb/s
Channel(s) : 2 channels
Channel layout : L R
Sampling rate : 48.0 kHz
Frame rate : 23.438 FPS (2048 SPF)
Compression mode : Lossy
Stream size : 75.9 MiB (2%)
Language : English
Default : Yes
Alternate group : 1

Text #1
ID : 1-CC1
Format : EIA-608
Muxing mode : SCTE 128 / DTVCC Transport
Muxing mode, more info : Muxed in Video #1
Duration : 1 h 52 min
Bit rate mode : Constant
Stream size : 0.00 Byte (0%)
Caption Service Name : CC1

  1080p Bellator 245 Prelims

Text #2
ID : 1-1
Format : EIA-708
Muxing mode : SCTE 128 / DTVCC Transport
Muxing mode, more info : Muxed in Video #1
Duration : 1 h 52 min
Bit rate mode : Constant
Stream size : 0.00 Byte (0%)

 

BELLATOR 245 PLAY-BY-PLAY:

Phil Davis vs. Lyoto Machida

The 26-9 Machida makes his way out first in the white trunks and blue gloves. As per his usual Mr. Davis has the pink trunks on, sporting red gloves for this fight, record of 21-5, 1 NC before this fight. Machida hails from Belem, Brazil and fights out of California. Davis hails from Harrisburg, PA and fights out of San Diego, CA. Our referee is Dan Miragliotta.

 

 Bellator 245 Prelims Full Show

Round 1: Both men gauge the range and distance for the first minute, exchanging leg kicks. Machida’s unorthodox karate stance is on full display, waving his hands around in front of Davis, leaning forward and leaning back. Davis keeps his left hand loose and his right hand tucked near his chin. Body kick by Machida as we pass the two minute mark. Davis throws a high kick. He pumps the left jab and circles to the left. Leg kick from Davis. Machida throws a high kick that’s checked. Body kick by Davis. Davis misses with the right kick and pumps the left hand. Machida is backing up toward the cage. Another push kick to the body from Davis. And another. Body kick by Davis. High kick. High kick that’s checked. 10-9 Davis.

 

Bellator 245 Prelims 

Round 2: Davis dances in front of Machida and switches his stance. Right kick to the body from Davis. Davis continues to pump the jab, but it’s his kicks to the body and leg that are doing the damage. Both men trade kicks at the halfway point. Machida’s head kick is checked. Davis zings him with a right hand but Machida recovers quickly. Teep kick from Davis. Four minutes gone. Machida misses with a leg kick. Davis circles to the right and keeps Machida backpedaling. Body kick from Davis. Leg kick from Machida. Davis goes for a single leg. Machida gets back up but gets a warning for grabbing the fence. 10-9 Davis.

 

Free 1080p Bellator 245 Prelims Full Show

 

 

[/su_expand]

 

 

 

Watch online

 

 

[su_expand more_text=”Open Videos Online” less_text=”Close Videos” height=”0″ text_color=”#0859fe” link_color=”#a74a69″ link_style=”button” more_icon=”icon: play” less_icon=”icon: stop”]

 

 

Server 1

 

 

 

 

watch now

 

 

 

 

Server-2

 

 

 

watch now

 

 

 

 

Server-3

 

 

 

Free 1080p Bellator 245 Prelims

 

 

 

[/su_expand]
 

 

Uploaded By Site DX-TV.com

 

 

 

Download Links with High Speed   

 

 

[su_expand more_text=”Open Download Links” less_text=”Close all Links” height=”0″ text_color=”#4b9a3e” link_color=”#1b3fa8″ link_style=”button” more_icon=”icon: link” less_icon=”icon: unlink”]
 

 

nitroflare.com

 

 

 

rapidgator.net

 

 

 

uploadgig.com

 

 

[/su_expand]
dx-tv.com

 

urlfree.net

Leave a Reply

Your email address will not be published. Required fields are marked *

This site uses Akismet to reduce spam. Learn how your comment data is processed.