MMA Bellator 245 Prelims 2020 09 11 720p Free Online

Watch MMA Bellator 245 Prelims 2020 09 11 720p Free Online DX-TV

 

Bellator 245 Prelims

 

 Bellator 245 Prelims

 

MMA Bellator 245 Prelims 2020 09 11 720p Free Online

 

 

 

[su_expand more_text=”Show More Info” less_text=”Close all Info” height=”30″ text_color=”#000000″ link_color=”#e25f8b” link_style=”button” more_icon=”icon: arrow-down” less_icon=”icon: arrow-up”]

 

Complete name : MMA Bellator 245 Prelims 2020 09 11 720p WEB H264 DX-TV.mp4
Format : MPEG-4
Format profile : Base Media
Codec ID : isom
File size : 1.97 GiB
Duration : 1 h 34 min
Overall bit rate mode : Variable
Overall bit rate : 2 987 kb/s
Writing application : Lavf58.25.100

Bellator 245 Prelims

Video
ID : 1
Format : AVC
Duration : 1 h 34 min
Bit rate mode : Variable
Bit rate : 2 887 kb/s
Maximum bit rate : 3 104 kb/s
Width : 1 280 pixels
Height : 720 pixels
Display aspect ratio : 16:9
Frame rate mode : Constant
Frame rate : 29.970 (30000/1001) FPS
Standard : NTSC
Color space : YUV
Chroma : 4:2:0
Bit depth : 8 bits
Scan type : Progressive
Bits/(Pixel*Frame) : 0.105
Stream size : 1.90 GiB (97%)
Color range : Limited
Color primaries : BT.709
Transfer characteristics : BT.709
Matrix coefficients : BT.709
Codec configuration box : avcC

Bellator 245 Prelims

Audio
ID : 2
Format : AAC LC SBR
Format/Info : Advanced Audio
Commercial name : HE-AAC
Format settings : Implicit
Codec ID : mp4a-40-2
Duration : 1 h 34 min
Bit rate mode : Constant
Bit rate : 96.0 kb/s
Channel(s) : 2 channels
Channel layout : L R
Sampling rate : 48.0 kHz
Frame rate : 23.438 FPS (2048 SPF)
Compression mode : Lossy
Stream size : 63.9 MiB (3%)
Default : Yes
Alternate group : 1

 

Bellator 245 Prelims QUICK RESULTS:

Phil Davis vs. Lyoto Machida — Davis SD 28-29, 29-28 X2.
Cat Zingano vs. Gabby Holloway — Zingano UD 29-27, 30-26 X2.
Ed Ruth vs. Taylor Johnson — Johnson sub (inverted heel hook) 0:59 R1.
Raymond Daniels vs. Peter Stanonik — NO CONTEST (foul) 1:00 R2.
Rafael Carvalho vs. Alex Polizzi — Polizzi UD 30-27 X3.
Leslie Smith vs. Amanda Bell — Smith UD 29-28 X3.
Tyrell Fortune vs. Jack May — NO CONTEST (foul) 2:42 R1.
Keith Lee vs. Vinicius Zani — Lee UD 30-27, 29-28 X2.

 

MMA Bellator 245 Prelims 2020 09 11 720p Free Online

 

 

[/su_expand]

 

 

 

Watch online

 

 

[su_expand more_text=”Open Videos Online” less_text=”Close Videos” height=”0″ text_color=”#0859fe” link_color=”#a74a69″ link_style=”button” more_icon=”icon: play” less_icon=”icon: stop”]

 

 

Server 1

 

 

 

 

watch now

 

 

 

 

Server-2

 

 

 

Bellator 245 Prelims

 

 

 

 

Server-3

 

 

 

watch now

 

 

 

[/su_expand]
 

 

Uploaded By Site DX-TV.com

 

 

 

Download Links with High Speed   

 

 

[su_expand more_text=”Open Download Links” less_text=”Close all Links” height=”0″ text_color=”#4b9a3e” link_color=”#1b3fa8″ link_style=”button” more_icon=”icon: link” less_icon=”icon: unlink”]
 

 

 

nitroflare.com

 

 

 

rapidgator.net

 

 

 

uploadgig.com

 

 

[/su_expand]
dx-tv.com

 

urlfree.net

Leave a Reply

Your email address will not be published. Required fields are marked *

This site uses Akismet to reduce spam. Learn how your comment data is processed.