Dragon Gate Kobe Pro Wrestling Festival 2021 Day 1 Free

Dragon Gate Kobe Pro Wrestling Festival 2021 07 31 Day 1 English/ Japanese Online Free Replay DX-TV

Contents show

Dragon Gate Kobe Pro Wrestling Festival 2021

 Dragon Gate Kobe Pro Wrestling Festival 2021

 

 

 

Download Links with premium High Speed


 

Dopapk

 

 

Show Links

 

http://shrt10.com/s98goC
http://shrt10.com/UFN83
http://shrt10.com/WZPZxi3NG
http://shrt10.com/OSAsiQr

 

[collapse]

 

 

Nitroflare

 

 

Show Links

 

http://shrt10.com/oDP4j
http://shrt10.com/PBpCEq
http://shrt10.com/YwfjmZ
http://shrt10.com/x3Q2zH

 

[collapse]

 

 

Rapidgator

 

 

Show Links

 

http://shrt10.com/BQoUBar
http://shrt10.com/kx0eA7xn
http://shrt10.com/PUzrqyfEj
http://shrt10.com/Jp7p22dFw

 

[collapse]

 

 

Uploaded

 

 

Show Links

 

http://shrt10.com/CrlxrM
http://shrt10.com/oIGzh

 

[collapse]

 

 

Watch online

 

Server 1

 

 

 

 

Dragon Gate Kobe Pro Wrestling Festival 2021

watch now

 

 

 

 

Server-2

 

 

 

 

Dragon Gate Kobe Pro Wrestling Festival 2021

watch now

 

 

 

|Server-3

 

 

 

 

Dragon Gate Kobe Pro Wrestling Festival 2021

Dragon Gate Kobe Pro Wrestling Festival 2021

 

 

Uploaded By Site DX-TV.com

 

 

Show Info This Show

 

Dragon Gate Kobe Pro Wrestling Festival 2021

Complete name : 2021.07.31.Dragon.Gate.Kobe.Pro.Wrestling.Festival.Day.1 English.mp4
Format : MPEG-4
Format profile : Base Media
Codec ID : mp42 (mp42)
File size : 2.35 GiB
Duration : 4 h 44 min
Overall bit rate : 1 179 kb/s

Video
ID : 1
Format : AVC
Format/Info : Advanced Video
Duration : 4 h 44 min
Bit rate : 1 044 kb/s
Width : 720 pixels
Height : 480 pixels
Display aspect ratio : 3:2
Frame rate mode : Constant
Frame rate : 30.000 FPS
Color space : YUV
Chroma subsampling : 4:2:0
Bit depth : 8 bits
Scan type : Progressive
Bits/(Pixel*Frame) : 0.101
Stream size : 2.08 GiB (89%)
Language : English
Codec configuration box : avc

Dragon Gate Kobe Pro Wrestling Festival 2021

Audio
ID : 2
Format : AAC LC
Format/Info : Advanced Audio
Codec ID : mp4a-40-2
Duration : 4 h 44 min
Bit rate mode : Constant
Bit rate : 128 kb/s
Channel(s) : 2 channels
Channel layout : L R
Sampling rate : 44.1 kHz
Frame rate : 43.066 FPS
Compression mode : Lossy
Stream size : 261 MiB
Title : Stereo
Language : English
Default : Yes
Alternate group : 1

Complete name : 2021.07.31.Dragon.Gate.Kobe.Pro.Wrestling.Festival.Day.1 Japan.mp4
Format : MPEG-4
Format profile : Base Media
Codec ID : mp42 (mp42)
File size : 2.33 GiB
Duration : 4 h 38 min
Overall bit rate : 1 194 kb/s

Dragon Gate Kobe Pro Wrestling Festival 2021

Video
ID : 1
Format : AVC
Format/Info : Advanced Video
Duration : 4 h 38 min
Bit rate : 1 059 kb/s
Width : 720 pixels
Height : 480 pixels
Display aspect ratio : 3:2
Frame rate mode : Constant
Frame rate : 30.000 FPS
Color space : YUV
Chroma subsampling : 4:2:0
Bit depth : 8 bits
Scan type : Progressive
Bits/(Pixel*Frame) : 0.102
Stream size : 2.06 GiB (89%)
Language : English
Codec configuration box : avcC

Audio
ID : 2
Format : AAC LC
Format/Info : Advanced Audio
Codec ID : mp4a-40-2
Duration : 4 h 38 min
Bit rate mode : Constant
Bit rate : 128 kb/s
Channel(s) : 2 channels
Channel layout : L R
Sampling rate : 44.1 kHz
Frame rate : 43.066 FPS (1024 SPF)
Compression mode : Lossy
Stream size : 255 MiB (11%)
Title : Stereo
Language : English
Default : Yes
Alternate group : 1

Dragon Gate Kobe Pro Wrestling Festival 2021

Complete name : 2021.07.31.Dragon.Gate.Kobe.Pro.Wrestling.Festival.Day.1.English.mp4
Format : MPEG-4
Format profile : Base Media
Codec ID : isom
File size : 5.21 GiB
Duration : 4 h 38 min
Overall bit rate mode : Variable
Overall bit rate : 2 674 kb/s

Video
ID : 1
Format : AVC
Format/Info : Advanced Video
Duration : 4 h 38 min
Bit rate mode : Variable
Bit rate : 2 474 kb/s
Maximum bit rate : 2 703 kb/s
Width : 1 280 pixels
Height : 720 pixels
Display aspect ratio : 16:9
Frame rate mode : Variable
Frame rate : 29.970 (29970/1000) FPS
Minimum frame rate : 19.608 FPS
Maximum frame rate : 34.483 FPS
Original frame rate : 30.000 FPS
Standard : NTSC
Color space : YUV
Chroma subsampling : 4:2:0
Bit depth : 8 bits
Scan type : Progressive
Bits/(Pixel*Frame) : 0.090
Stream size : 4.82 GiB (93%)
Color range : Limited
Color primaries : BT.709
Transfer characteristics : BT.709
Matrix coefficients : BT.709
Codec configuration box : avc

Dragon Gate Kobe Pro Wrestling Festival 2021

Audio
ID : 2
Format : AAC LC
Codec ID : mp4a-40-2
Duration : 4 h 38 min
Bit rate mode : Constant
Bit rate : 192 kb/s
Channel(s) : 2 channels
Channel layout : L R
Sampling rate : 48.0 kHz
Frame rate : 46.875 FPS (1024 SPF)
Compression mode : Lossy
Stream size : 378 MiB (7%)
Default : Yes
Alternate group : 1

General
Complete name : 2021.07.31.Dragon.Gate.Kobe.Pro.Wrestling.Festival.Day.1.Japanese.mp4
Format : MPEG-4
Format profile : Base Media
Codec ID : isom
File size : 5.31 GiB
Duration : 4 h 44 min
Overall bit rate mode : Variable
Overall bit rate : 2 667 kb/s

Dragon Gate Kobe Pro Wrestling Festival 2021

Video
ID : 1
Format : AVC
Format/Info : Advanced Video
Duration : 4 h 44 min
Source duration : 4 h 44 min
Bit rate mode : Variable
Bit rate : 2 467 kb/s
Maximum bit rate : 2 703 kb/s
Width : 1 280 pixels
Height : 720 pixels
Display aspect ratio : 16:9
Frame rate mode : Variable
Frame rate : 29.970 (29970/1000) FPS
Minimum frame rate : 20.000 FPS
Maximum frame rate : 33.333 FPS
Original frame rate : 30.000 FPS
Standard : NTSC
Color space : YUV
Chroma subsampling : 4:2:0
Bit depth : 8 bits
Scan type : Progressive
Bits/(Pixel*Frame) : 0.089
Stream size : 4.91 GiB (93%)
Source stream size : 4.91 GiB (93%)
Color range : Limited
Color primaries : BT.709
Transfer characteristics : BT.709
Matrix coefficients : BT.709
Codec configuration box : avc

Dragon Gate Kobe Pro Wrestling Festival 2021

Audio
ID : 2
Format : AAC LC
Format/Info : Advanced Audio
Codec ID : mp4a-40-2
Duration : 4 h 44 min
Bit rate mode : Constant
Bit rate : 192 kb/s
Channel(s) : 2 channels
Channel layout : L R
Sampling rate : 48.0 kHz
Frame rate : 46.875 FPS (1024 SPF)
Compression mode : Lossy
Stream size : 386 MiB (7%)
Default : Yes
Alternate group : 1

Dragon Gate Kobe Pro Wrestling Festival 2021

 

Complete name : 2021.07.31.Dragon.Gate.Kobe.Pro.Wrestling.Festival.Day.1 English.mp4
Format : MPEG-4
Format profile : Base Media
Codec ID : mp42 (mp42)
File size : 2.35 GiB
Duration : 4 h 44 min
Overall bit rate : 1 179 kb/s

Video
ID : 1
Format : AVC
Format/Info : Advanced Video
Duration : 4 h 44 min
Bit rate : 1 044 kb/s
Width : 720 pixels
Height : 480 pixels
Display aspect ratio : 3:2
Frame rate mode : Constant
Frame rate : 30.000 FPS
Color space : YUV
Chroma subsampling : 4:2:0
Bit depth : 8 bits
Scan type : Progressive
Bits/(Pixel*Frame) : 0.101
Stream size : 2.08 GiB (89%)
Language : English
Codec configuration box : avc

Dragon Gate Kobe Pro Wrestling Festival 2021

Audio
ID : 2
Format : AAC LC
Format/Info : Advanced Audio
Codec ID : mp4a-40-2
Duration : 4 h 44 min
Bit rate mode : Constant
Bit rate : 128 kb/s
Channel(s) : 2 channels
Channel layout : L R
Sampling rate : 44.1 kHz
Frame rate : 43.066 FPS
Compression mode : Lossy
Stream size : 261 MiB
Title : Stereo
Language : English
Default : Yes
Alternate group : 1

Complete name : 2021.07.31.Dragon.Gate.Kobe.Pro.Wrestling.Festival.Day.1 Japan.mp4
Format : MPEG-4
Format profile : Base Media
Codec ID : mp42 (mp42)
File size : 2.33 GiB
Duration : 4 h 38 min
Overall bit rate : 1 194 kb/s

Dragon Gate Kobe Pro Wrestling Festival 2021

Video
ID : 1
Format : AVC
Format/Info : Advanced Video
Duration : 4 h 38 min
Bit rate : 1 059 kb/s
Width : 720 pixels
Height : 480 pixels
Display aspect ratio : 3:2
Frame rate mode : Constant
Frame rate : 30.000 FPS
Color space : YUV
Chroma subsampling : 4:2:0
Bit depth : 8 bits
Scan type : Progressive
Bits/(Pixel*Frame) : 0.102
Stream size : 2.06 GiB (89%)
Language : English
Codec configuration box : avcC

Audio
ID : 2
Format : AAC LC
Format/Info : Advanced Audio
Codec ID : mp4a-40-2
Duration : 4 h 38 min
Bit rate mode : Constant
Bit rate : 128 kb/s
Channel(s) : 2 channels
Channel layout : L R
Sampling rate : 44.1 kHz
Frame rate : 43.066 FPS (1024 SPF)
Compression mode : Lossy
Stream size : 255 MiB (11%)
Title : Stereo
Language : English
Default : Yes
Alternate group : 1

Dragon Gate Kobe Pro Wrestling Festival 2021

Complete name : 2021.07.31.Dragon.Gate.Kobe.Pro.Wrestling.Festival.Day.1.English.mp4
Format : MPEG-4
Format profile : Base Media
Codec ID : isom
File size : 5.21 GiB
Duration : 4 h 38 min
Overall bit rate mode : Variable
Overall bit rate : 2 674 kb/s

Video
ID : 1
Format : AVC
Format/Info : Advanced Video
Duration : 4 h 38 min
Bit rate mode : Variable
Bit rate : 2 474 kb/s
Maximum bit rate : 2 703 kb/s
Width : 1 280 pixels
Height : 720 pixels
Display aspect ratio : 16:9
Frame rate mode : Variable
Frame rate : 29.970 (29970/1000) FPS
Minimum frame rate : 19.608 FPS
Maximum frame rate : 34.483 FPS
Original frame rate : 30.000 FPS
Standard : NTSC
Color space : YUV
Chroma subsampling : 4:2:0
Bit depth : 8 bits
Scan type : Progressive
Bits/(Pixel*Frame) : 0.090
Stream size : 4.82 GiB (93%)
Color range : Limited
Color primaries : BT.709
Transfer characteristics : BT.709
Matrix coefficients : BT.709
Codec configuration box : avc

Dragon Gate Kobe Pro Wrestling Festival 2021

Audio
ID : 2
Format : AAC LC
Codec ID : mp4a-40-2
Duration : 4 h 38 min
Bit rate mode : Constant
Bit rate : 192 kb/s
Channel(s) : 2 channels
Channel layout : L R
Sampling rate : 48.0 kHz
Frame rate : 46.875 FPS (1024 SPF)
Compression mode : Lossy
Stream size : 378 MiB (7%)
Default : Yes
Alternate group : 1

General
Complete name : 2021.07.31.Dragon.Gate.Kobe.Pro.Wrestling.Festival.Day.1.Japanese.mp4
Format : MPEG-4
Format profile : Base Media
Codec ID : isom
File size : 5.31 GiB
Duration : 4 h 44 min
Overall bit rate mode : Variable
Overall bit rate : 2 667 kb/s

Dragon Gate Kobe Pro Wrestling Festival 2021

Video
ID : 1
Format : AVC
Format/Info : Advanced Video
Duration : 4 h 44 min
Source duration : 4 h 44 min
Bit rate mode : Variable
Bit rate : 2 467 kb/s
Maximum bit rate : 2 703 kb/s
Width : 1 280 pixels
Height : 720 pixels
Display aspect ratio : 16:9
Frame rate mode : Variable
Frame rate : 29.970 (29970/1000) FPS
Minimum frame rate : 20.000 FPS
Maximum frame rate : 33.333 FPS
Original frame rate : 30.000 FPS
Standard : NTSC
Color space : YUV
Chroma subsampling : 4:2:0
Bit depth : 8 bits
Scan type : Progressive
Bits/(Pixel*Frame) : 0.089
Stream size : 4.91 GiB (93%)
Source stream size : 4.91 GiB (93%)
Color range : Limited
Color primaries : BT.709
Transfer characteristics : BT.709
Matrix coefficients : BT.709
Codec configuration box : avc

Dragon Gate Kobe Pro Wrestling Festival 2021

Audio
ID : 2
Format : AAC LC
Format/Info : Advanced Audio
Codec ID : mp4a-40-2
Duration : 4 h 44 min
Bit rate mode : Constant
Bit rate : 192 kb/s
Channel(s) : 2 channels
Channel layout : L R
Sampling rate : 48.0 kHz
Frame rate : 46.875 FPS (1024 SPF)
Compression mode : Lossy
Stream size : 386 MiB (7%)
Default : Yes
Alternate group : 1

Dragon Gate Kobe Pro Wrestling Festival 2021

 

Complete name : 2021.07.31.Dragon.Gate.Kobe.Pro.Wrestling.Festival.Day.1 English.mp4
Format : MPEG-4
Format profile : Base Media
Codec ID : mp42 (mp42)
File size : 2.35 GiB
Duration : 4 h 44 min
Overall bit rate : 1 179 kb/s

Video
ID : 1
Format : AVC
Format/Info : Advanced Video
Duration : 4 h 44 min
Bit rate : 1 044 kb/s
Width : 720 pixels
Height : 480 pixels
Display aspect ratio : 3:2
Frame rate mode : Constant
Frame rate : 30.000 FPS
Color space : YUV
Chroma subsampling : 4:2:0
Bit depth : 8 bits
Scan type : Progressive
Bits/(Pixel*Frame) : 0.101
Stream size : 2.08 GiB (89%)
Language : English
Codec configuration box : avc

Dragon Gate Kobe Pro Wrestling Festival 2021

Audio
ID : 2
Format : AAC LC
Format/Info : Advanced Audio
Codec ID : mp4a-40-2
Duration : 4 h 44 min
Bit rate mode : Constant
Bit rate : 128 kb/s
Channel(s) : 2 channels
Channel layout : L R
Sampling rate : 44.1 kHz
Frame rate : 43.066 FPS
Compression mode : Lossy
Stream size : 261 MiB
Title : Stereo
Language : English
Default : Yes
Alternate group : 1

Complete name : 2021.07.31.Dragon.Gate.Kobe.Pro.Wrestling.Festival.Day.1 Japan.mp4
Format : MPEG-4
Format profile : Base Media
Codec ID : mp42 (mp42)
File size : 2.33 GiB
Duration : 4 h 38 min
Overall bit rate : 1 194 kb/s

Dragon Gate Kobe Pro Wrestling Festival 2021

Video
ID : 1
Format : AVC
Format/Info : Advanced Video
Duration : 4 h 38 min
Bit rate : 1 059 kb/s
Width : 720 pixels
Height : 480 pixels
Display aspect ratio : 3:2
Frame rate mode : Constant
Frame rate : 30.000 FPS
Color space : YUV
Chroma subsampling : 4:2:0
Bit depth : 8 bits
Scan type : Progressive
Bits/(Pixel*Frame) : 0.102
Stream size : 2.06 GiB (89%)
Language : English
Codec configuration box : avcC

Audio
ID : 2
Format : AAC LC
Format/Info : Advanced Audio
Codec ID : mp4a-40-2
Duration : 4 h 38 min
Bit rate mode : Constant
Bit rate : 128 kb/s
Channel(s) : 2 channels
Channel layout : L R
Sampling rate : 44.1 kHz
Frame rate : 43.066 FPS (1024 SPF)
Compression mode : Lossy
Stream size : 255 MiB (11%)
Title : Stereo
Language : English
Default : Yes
Alternate group : 1

Dragon Gate Kobe Pro Wrestling Festival 2021

Complete name : 2021.07.31.Dragon.Gate.Kobe.Pro.Wrestling.Festival.Day.1.English.mp4
Format : MPEG-4
Format profile : Base Media
Codec ID : isom
File size : 5.21 GiB
Duration : 4 h 38 min
Overall bit rate mode : Variable
Overall bit rate : 2 674 kb/s

Video
ID : 1
Format : AVC
Format/Info : Advanced Video
Duration : 4 h 38 min
Bit rate mode : Variable
Bit rate : 2 474 kb/s
Maximum bit rate : 2 703 kb/s
Width : 1 280 pixels
Height : 720 pixels
Display aspect ratio : 16:9
Frame rate mode : Variable
Frame rate : 29.970 (29970/1000) FPS
Minimum frame rate : 19.608 FPS
Maximum frame rate : 34.483 FPS
Original frame rate : 30.000 FPS
Standard : NTSC
Color space : YUV
Chroma subsampling : 4:2:0
Bit depth : 8 bits
Scan type : Progressive
Bits/(Pixel*Frame) : 0.090
Stream size : 4.82 GiB (93%)
Color range : Limited
Color primaries : BT.709
Transfer characteristics : BT.709
Matrix coefficients : BT.709
Codec configuration box : avc

Dragon Gate Kobe Pro Wrestling Festival 2021

Audio
ID : 2
Format : AAC LC
Codec ID : mp4a-40-2
Duration : 4 h 38 min
Bit rate mode : Constant
Bit rate : 192 kb/s
Channel(s) : 2 channels
Channel layout : L R
Sampling rate : 48.0 kHz
Frame rate : 46.875 FPS (1024 SPF)
Compression mode : Lossy
Stream size : 378 MiB (7%)
Default : Yes
Alternate group : 1

General
Complete name : 2021.07.31.Dragon.Gate.Kobe.Pro.Wrestling.Festival.Day.1.Japanese.mp4
Format : MPEG-4
Format profile : Base Media
Codec ID : isom
File size : 5.31 GiB
Duration : 4 h 44 min
Overall bit rate mode : Variable
Overall bit rate : 2 667 kb/s

Dragon Gate Kobe Pro Wrestling Festival 2021

Video
ID : 1
Format : AVC
Format/Info : Advanced Video
Duration : 4 h 44 min
Source duration : 4 h 44 min
Bit rate mode : Variable
Bit rate : 2 467 kb/s
Maximum bit rate : 2 703 kb/s
Width : 1 280 pixels
Height : 720 pixels
Display aspect ratio : 16:9
Frame rate mode : Variable
Frame rate : 29.970 (29970/1000) FPS
Minimum frame rate : 20.000 FPS
Maximum frame rate : 33.333 FPS
Original frame rate : 30.000 FPS
Standard : NTSC
Color space : YUV
Chroma subsampling : 4:2:0
Bit depth : 8 bits
Scan type : Progressive
Bits/(Pixel*Frame) : 0.089
Stream size : 4.91 GiB (93%)
Source stream size : 4.91 GiB (93%)
Color range : Limited
Color primaries : BT.709
Transfer characteristics : BT.709
Matrix coefficients : BT.709
Codec configuration box : avc

Dragon Gate Kobe Pro Wrestling Festival 2021

Audio
ID : 2
Format : AAC LC
Format/Info : Advanced Audio
Codec ID : mp4a-40-2
Duration : 4 h 44 min
Bit rate mode : Constant
Bit rate : 192 kb/s
Channel(s) : 2 channels
Channel layout : L R
Sampling rate : 48.0 kHz
Frame rate : 46.875 FPS (1024 SPF)
Compression mode : Lossy
Stream size : 386 MiB (7%)
Default : Yes
Alternate group : 1

Dragon Gate Kobe Pro Wrestling Festival 2021

 

Complete name : 2021.07.31.Dragon.Gate.Kobe.Pro.Wrestling.Festival.Day.1 English.mp4
Format : MPEG-4
Format profile : Base Media
Codec ID : mp42 (mp42)
File size : 2.35 GiB
Duration : 4 h 44 min
Overall bit rate : 1 179 kb/s

Video
ID : 1
Format : AVC
Format/Info : Advanced Video
Duration : 4 h 44 min
Bit rate : 1 044 kb/s
Width : 720 pixels
Height : 480 pixels
Display aspect ratio : 3:2
Frame rate mode : Constant
Frame rate : 30.000 FPS
Color space : YUV
Chroma subsampling : 4:2:0
Bit depth : 8 bits
Scan type : Progressive
Bits/(Pixel*Frame) : 0.101
Stream size : 2.08 GiB (89%)
Language : English
Codec configuration box : avc

Dragon Gate Kobe Pro Wrestling Festival 2021

Audio
ID : 2
Format : AAC LC
Format/Info : Advanced Audio
Codec ID : mp4a-40-2
Duration : 4 h 44 min
Bit rate mode : Constant
Bit rate : 128 kb/s
Channel(s) : 2 channels
Channel layout : L R
Sampling rate : 44.1 kHz
Frame rate : 43.066 FPS
Compression mode : Lossy
Stream size : 261 MiB
Title : Stereo
Language : English
Default : Yes
Alternate group : 1

Complete name : 2021.07.31.Dragon.Gate.Kobe.Pro.Wrestling.Festival.Day.1 Japan.mp4
Format : MPEG-4
Format profile : Base Media
Codec ID : mp42 (mp42)
File size : 2.33 GiB
Duration : 4 h 38 min
Overall bit rate : 1 194 kb/s

Dragon Gate Kobe Pro Wrestling Festival 2021

Video
ID : 1
Format : AVC
Format/Info : Advanced Video
Duration : 4 h 38 min
Bit rate : 1 059 kb/s
Width : 720 pixels
Height : 480 pixels
Display aspect ratio : 3:2
Frame rate mode : Constant
Frame rate : 30.000 FPS
Color space : YUV
Chroma subsampling : 4:2:0
Bit depth : 8 bits
Scan type : Progressive
Bits/(Pixel*Frame) : 0.102
Stream size : 2.06 GiB (89%)
Language : English
Codec configuration box : avcC

Audio
ID : 2
Format : AAC LC
Format/Info : Advanced Audio
Codec ID : mp4a-40-2
Duration : 4 h 38 min
Bit rate mode : Constant
Bit rate : 128 kb/s
Channel(s) : 2 channels
Channel layout : L R
Sampling rate : 44.1 kHz
Frame rate : 43.066 FPS (1024 SPF)
Compression mode : Lossy
Stream size : 255 MiB (11%)
Title : Stereo
Language : English
Default : Yes
Alternate group : 1

Dragon Gate Kobe Pro Wrestling Festival 2021

Complete name : 2021.07.31.Dragon.Gate.Kobe.Pro.Wrestling.Festival.Day.1.English.mp4
Format : MPEG-4
Format profile : Base Media
Codec ID : isom
File size : 5.21 GiB
Duration : 4 h 38 min
Overall bit rate mode : Variable
Overall bit rate : 2 674 kb/s

Video
ID : 1
Format : AVC
Format/Info : Advanced Video
Duration : 4 h 38 min
Bit rate mode : Variable
Bit rate : 2 474 kb/s
Maximum bit rate : 2 703 kb/s
Width : 1 280 pixels
Height : 720 pixels
Display aspect ratio : 16:9
Frame rate mode : Variable
Frame rate : 29.970 (29970/1000) FPS
Minimum frame rate : 19.608 FPS
Maximum frame rate : 34.483 FPS
Original frame rate : 30.000 FPS
Standard : NTSC
Color space : YUV
Chroma subsampling : 4:2:0
Bit depth : 8 bits
Scan type : Progressive
Bits/(Pixel*Frame) : 0.090
Stream size : 4.82 GiB (93%)
Color range : Limited
Color primaries : BT.709
Transfer characteristics : BT.709
Matrix coefficients : BT.709
Codec configuration box : avc

Dragon Gate Kobe Pro Wrestling Festival 2021

Audio
ID : 2
Format : AAC LC
Codec ID : mp4a-40-2
Duration : 4 h 38 min
Bit rate mode : Constant
Bit rate : 192 kb/s
Channel(s) : 2 channels
Channel layout : L R
Sampling rate : 48.0 kHz
Frame rate : 46.875 FPS (1024 SPF)
Compression mode : Lossy
Stream size : 378 MiB (7%)
Default : Yes
Alternate group : 1

General
Complete name : 2021.07.31.Dragon.Gate.Kobe.Pro.Wrestling.Festival.Day.1.Japanese.mp4
Format : MPEG-4
Format profile : Base Media
Codec ID : isom
File size : 5.31 GiB
Duration : 4 h 44 min
Overall bit rate mode : Variable
Overall bit rate : 2 667 kb/s

Dragon Gate Kobe Pro Wrestling Festival 2021

Video
ID : 1
Format : AVC
Format/Info : Advanced Video
Duration : 4 h 44 min
Source duration : 4 h 44 min
Bit rate mode : Variable
Bit rate : 2 467 kb/s
Maximum bit rate : 2 703 kb/s
Width : 1 280 pixels
Height : 720 pixels
Display aspect ratio : 16:9
Frame rate mode : Variable
Frame rate : 29.970 (29970/1000) FPS
Minimum frame rate : 20.000 FPS
Maximum frame rate : 33.333 FPS
Original frame rate : 30.000 FPS
Standard : NTSC
Color space : YUV
Chroma subsampling : 4:2:0
Bit depth : 8 bits
Scan type : Progressive
Bits/(Pixel*Frame) : 0.089
Stream size : 4.91 GiB (93%)
Source stream size : 4.91 GiB (93%)
Color range : Limited
Color primaries : BT.709
Transfer characteristics : BT.709
Matrix coefficients : BT.709
Codec configuration box : avc

Dragon Gate Kobe Pro Wrestling Festival 2021

Audio
ID : 2
Format : AAC LC
Format/Info : Advanced Audio
Codec ID : mp4a-40-2
Duration : 4 h 44 min
Bit rate mode : Constant
Bit rate : 192 kb/s
Channel(s) : 2 channels
Channel layout : L R
Sampling rate : 48.0 kHz
Frame rate : 46.875 FPS (1024 SPF)
Compression mode : Lossy
Stream size : 386 MiB (7%)
Default : Yes
Alternate group : 1

Dragon Gate Kobe Pro Wrestling Festival 2021

 

Complete name : 2021.07.31.Dragon.Gate.Kobe.Pro.Wrestling.Festival.Day.1 English.mp4
Format : MPEG-4
Format profile : Base Media
Codec ID : mp42 (mp42)
File size : 2.35 GiB
Duration : 4 h 44 min
Overall bit rate : 1 179 kb/s

Video
ID : 1
Format : AVC
Format/Info : Advanced Video
Duration : 4 h 44 min
Bit rate : 1 044 kb/s
Width : 720 pixels
Height : 480 pixels
Display aspect ratio : 3:2
Frame rate mode : Constant
Frame rate : 30.000 FPS
Color space : YUV
Chroma subsampling : 4:2:0
Bit depth : 8 bits
Scan type : Progressive
Bits/(Pixel*Frame) : 0.101
Stream size : 2.08 GiB (89%)
Language : English
Codec configuration box : avc

Dragon Gate Kobe Pro Wrestling Festival 2021

Audio
ID : 2
Format : AAC LC
Format/Info : Advanced Audio
Codec ID : mp4a-40-2
Duration : 4 h 44 min
Bit rate mode : Constant
Bit rate : 128 kb/s
Channel(s) : 2 channels
Channel layout : L R
Sampling rate : 44.1 kHz
Frame rate : 43.066 FPS
Compression mode : Lossy
Stream size : 261 MiB
Title : Stereo
Language : English
Default : Yes
Alternate group : 1

Complete name : 2021.07.31.Dragon.Gate.Kobe.Pro.Wrestling.Festival.Day.1 Japan.mp4
Format : MPEG-4
Format profile : Base Media
Codec ID : mp42 (mp42)
File size : 2.33 GiB
Duration : 4 h 38 min
Overall bit rate : 1 194 kb/s

Dragon Gate Kobe Pro Wrestling Festival 2021

Video
ID : 1
Format : AVC
Format/Info : Advanced Video
Duration : 4 h 38 min
Bit rate : 1 059 kb/s
Width : 720 pixels
Height : 480 pixels
Display aspect ratio : 3:2
Frame rate mode : Constant
Frame rate : 30.000 FPS
Color space : YUV
Chroma subsampling : 4:2:0
Bit depth : 8 bits
Scan type : Progressive
Bits/(Pixel*Frame) : 0.102
Stream size : 2.06 GiB (89%)
Language : English
Codec configuration box : avcC

Audio
ID : 2
Format : AAC LC
Format/Info : Advanced Audio
Codec ID : mp4a-40-2
Duration : 4 h 38 min
Bit rate mode : Constant
Bit rate : 128 kb/s
Channel(s) : 2 channels
Channel layout : L R
Sampling rate : 44.1 kHz
Frame rate : 43.066 FPS (1024 SPF)
Compression mode : Lossy
Stream size : 255 MiB (11%)
Title : Stereo
Language : English
Default : Yes
Alternate group : 1

Dragon Gate Kobe Pro Wrestling Festival 2021

Complete name : 2021.07.31.Dragon.Gate.Kobe.Pro.Wrestling.Festival.Day.1.English.mp4
Format : MPEG-4
Format profile : Base Media
Codec ID : isom
File size : 5.21 GiB
Duration : 4 h 38 min
Overall bit rate mode : Variable
Overall bit rate : 2 674 kb/s

Video
ID : 1
Format : AVC
Format/Info : Advanced Video
Duration : 4 h 38 min
Bit rate mode : Variable
Bit rate : 2 474 kb/s
Maximum bit rate : 2 703 kb/s
Width : 1 280 pixels
Height : 720 pixels
Display aspect ratio : 16:9
Frame rate mode : Variable
Frame rate : 29.970 (29970/1000) FPS
Minimum frame rate : 19.608 FPS
Maximum frame rate : 34.483 FPS
Original frame rate : 30.000 FPS
Standard : NTSC
Color space : YUV
Chroma subsampling : 4:2:0
Bit depth : 8 bits
Scan type : Progressive
Bits/(Pixel*Frame) : 0.090
Stream size : 4.82 GiB (93%)
Color range : Limited
Color primaries : BT.709
Transfer characteristics : BT.709
Matrix coefficients : BT.709
Codec configuration box : avc

Dragon Gate Kobe Pro Wrestling Festival 2021

Audio
ID : 2
Format : AAC LC
Codec ID : mp4a-40-2
Duration : 4 h 38 min
Bit rate mode : Constant
Bit rate : 192 kb/s
Channel(s) : 2 channels
Channel layout : L R
Sampling rate : 48.0 kHz
Frame rate : 46.875 FPS (1024 SPF)
Compression mode : Lossy
Stream size : 378 MiB (7%)
Default : Yes
Alternate group : 1

General
Complete name : 2021.07.31.Dragon.Gate.Kobe.Pro.Wrestling.Festival.Day.1.Japanese.mp4
Format : MPEG-4
Format profile : Base Media
Codec ID : isom
File size : 5.31 GiB
Duration : 4 h 44 min
Overall bit rate mode : Variable
Overall bit rate : 2 667 kb/s

Dragon Gate Kobe Pro Wrestling Festival 2021

Video
ID : 1
Format : AVC
Format/Info : Advanced Video
Duration : 4 h 44 min
Source duration : 4 h 44 min
Bit rate mode : Variable
Bit rate : 2 467 kb/s
Maximum bit rate : 2 703 kb/s
Width : 1 280 pixels
Height : 720 pixels
Display aspect ratio : 16:9
Frame rate mode : Variable
Frame rate : 29.970 (29970/1000) FPS
Minimum frame rate : 20.000 FPS
Maximum frame rate : 33.333 FPS
Original frame rate : 30.000 FPS
Standard : NTSC
Color space : YUV
Chroma subsampling : 4:2:0
Bit depth : 8 bits
Scan type : Progressive
Bits/(Pixel*Frame) : 0.089
Stream size : 4.91 GiB (93%)
Source stream size : 4.91 GiB (93%)
Color range : Limited
Color primaries : BT.709
Transfer characteristics : BT.709
Matrix coefficients : BT.709
Codec configuration box : avc

Dragon Gate Kobe Pro Wrestling Festival 2021

Audio
ID : 2
Format : AAC LC
Format/Info : Advanced Audio
Codec ID : mp4a-40-2
Duration : 4 h 44 min
Bit rate mode : Constant
Bit rate : 192 kb/s
Channel(s) : 2 channels
Channel layout : L R
Sampling rate : 48.0 kHz
Frame rate : 46.875 FPS (1024 SPF)
Compression mode : Lossy
Stream size : 386 MiB (7%)
Default : Yes
Alternate group : 1

Dragon Gate Kobe Pro Wrestling Festival 2021

 

 

[collapse]

 

 

https://dx-tv.com/

Leave a Reply

Your email address will not be published. Required fields are marked *

This site uses Akismet to reduce spam. Learn how your comment data is processed.