Dragon Gate Kobe Pro Wrestling Festival 2021 Day 2 Free

Dragon Gate Kobe Pro Wrestling Festival 2021 08 01 Day 2 English/ Japan Online Free Replay DX-TV

Contents show

Dragon Gate Kobe Pro Wrestling Festival

 Dragon Gate Kobe Pro Wrestling Festival

 

 

 

Download Links with premium High Speed


 

Dopapk

 

 

Show Links

 

http://shrt10.com/cTAIQ
http://shrt10.com/tv2wsXS
http://shrt10.com/SiHzrtUff
http://shrt10.com/c2PaZ46hn

 

[collapse]

 

 

Nitroflare

 

 

Show Links

 

http://shrt10.com/TBdMfY
http://shrt10.com/p7NnLu4w
http://shrt10.com/XMwAKFD0
http://shrt10.com/nWMhkyKk2

 

[collapse]

 

 

Rapidgator

 

 

Show Links

 

http://shrt10.com/fnjkc
http://shrt10.com/WzfVkU
http://shrt10.com/k7cfF85C
http://shrt10.com/7tjGC

 

[collapse]

 

 

Uploaded

 

 

Show Links

 

http://shrt10.com/kEThrpfu
http://shrt10.com/ZlyWru

 

[collapse]

 

 

Watch online

 

Server 1

 

 

 

 

Dragon Gate Kobe Pro Wrestling Festival

watch now

 

 

 

 

Server-2

 

 

 

 

Dragon Gate Kobe Pro Wrestling Festival

watch now

 

 

 

|Server-3

 

 

 

 

Dragon Gate Kobe Pro Wrestling Festival

watch now

 

 

Uploaded By Site DX-TV.com

 

 

Show Info This Show

Dragon Gate Kobe Pro Wrestling Festival

 

Complete name : 2021.08.01.Dragon.Gate.Kobe.Pro.Wrestling.Festival.Day.2.English.mp4
Format : MPEG-4
Format profile : Base Media
Codec ID : isom
File size : 5.81 GiB
Duration : 5 h 12 min
Overall bit rate mode : Variable
Overall bit rate : 2 662 kb/s

Video
ID : 1
Format : AVC
Format/Info : Advanced Video
Duration : 5 h 12 min
Source duration : 5 h 12 min
Bit rate mode : Variable
Bit rate : 2 462 kb/s
Maximum bit rate : 2 703 kb/s
Width : 1 280 pixels
Height : 720 pixels
Display aspect ratio : 16:9
Frame rate mode : Variable
Frame rate : 29.970 (29970/1000) FPS
Minimum frame rate : 19.608 FPS
Maximum frame rate : 34.483 FPS
Original frame rate : 30.000 FPS
Standard : NTSC
Color space : YUV
Chroma subsampling : 4:2:0
Bit depth : 8 bits
Scan type : Progressive
Bits/(Pixel*Frame) : 0.089
Stream size : 5.38 GiB (92%)
Source stream size : 5.38 GiB (92%)
Color range : Limited
Color primaries : BT.709
Transfer characteristics : BT.709
Matrix coefficients : BT.709
Codec configuration box : avc

Dragon Gate Kobe Pro Wrestling Festival

Audio
ID : 2
Format : AAC LC
Format/Info : Advanced Audio
Codec ID : mp4a-40-2
Duration : 5 h 12 min
Bit rate mode : Constant
Bit rate : 192 kb/s
Channel(s) : 2 channels
Channel layout : L R
Sampling rate : 48.0 kHz
Frame rate : 46.875 FPS
Compression mode : Lossy
Stream size : 424 MiB (7%)
Default : Yes
Alternate group : 1

Complete name : 2021.08.01.Dragon.Gate.Kobe.Pro.Wrestling.Festival.Day.2.Japanese.mp4
Format : MPEG-4
Format profile : Base Media
Codec ID : isom
File size : 5.90 GiB
Duration : 5 h 17 min
Overall bit rate mode : Variable
Overall bit rate : 2 661 kb/s

Dragon Gate Kobe Pro Wrestling Festival

Video
ID : 1
Format : AVC
Format/Info : Advanced Video
Duration : 5 h 17 min
Bit rate mode : Variable
Bit rate : 2 462 kb/s
Maximum bit rate : 2 703 kb/s
Width : 1 280 pixels
Height : 720 pixels
Display aspect ratio : 16:9
Frame rate mode : Variable
Frame rate : 29.970 (29970/1000) FPS
Minimum frame rate : 19.608 FPS
Maximum frame rate : 32.258 FPS
Original frame rate : 30.000 FPS
Standard : NTSC
Color space : YUV
Chroma subsampling : 4:2:0
Bit depth : 8 bits
Scan type : Progressive
Bits/(Pixel*Frame) : 0.089
Stream size : 5.46 GiB (92%)
Color range : Limited
Color primaries : BT.709
Transfer characteristics : BT.709
Matrix coefficients : BT.709
Codec configuration box : avc

Dragon Gate Kobe Pro Wrestling Festival

Audio
ID : 2
Format : AAC LC
Codec ID : mp4a-40-2
Duration : 5 h 17 min
Bit rate mode : Constant
Bit rate : 192 kb/s
Channel(s) : 2 channels
Channel layout : L R
Sampling rate : 48.0 kHz
Frame rate : 46.875 FPS
Compression mode : Lossy
Stream size : 430 MiB (7%)
Default : Yes
Alternate group : 1

Complete name : 2021.08.01.Dragon.Gate.Kobe.Pro.Wrestling.Festival.Day.2 English.mp4
Format : MPEG-4
Format profile : Base Media
Codec ID : mp42 (mp42)
File size : 2.53 GiB
Duration : 5 h 17 min
Overall bit rate : 1 141 kb/s

Dragon Gate Kobe Pro Wrestling Festival

Video
ID : 1
Format : AVC
Format/Info : Advanced Video
Duration : 5 h 17 min
Bit rate : 1 006 kb/s
Width : 720 pixels
Height : 480 pixels
Display aspect ratio : 3:2
Frame rate mode : Constant
Frame rate : 30.000 FPS
Color space : YUV
Chroma subsampling : 4:2:0
Bit depth : 8 bits
Scan type : Progressive
Bits/(Pixel*Frame) : 0.097
Stream size : 2.23 GiB (88%)
Language : English
Codec configuration box : avcC

Audio
ID : 2
Format : AAC LC
Format/Info : Advanced Audio
Codec ID : mp4a-40-2
Duration : 5 h 17 min
Bit rate mode : Constant
Bit rate : 128 kb/s
Channel(s) : 2 channels
Channel layout : L R
Sampling rate : 44.1 kHz
Frame rate : 43.066 FPS
Compression mode : Lossy
Stream size : 290 MiB (11%)
Title : Stereo
Language : English
Default : Yes
Alternate group : 1

Dragon Gate Kobe Pro Wrestling Festival

Complete name : 2021.08.01.Dragon.Gate.Kobe.Pro.Wrestling.Festival.Day.2 Japan.mp4
Format : MPEG-4
Format profile : Base Media
Codec ID : mp42 (mp42)
File size : 2.54 GiB
Duration : 5 h 12 min
Overall bit rate : 1 165 kb/s

Video
ID : 1
Format : AVC
Format/Info : Advanced Video
Duration : 5 h 12 min
Bit rate : 1 030 kb/s
Width : 720 pixels
Height : 480 pixels
Display aspect ratio : 3:2
Frame rate mode : Constant
Frame rate : 30.000 FPS
Color space : YUV
Chroma subsampling : 4:2:0
Bit depth : 8 bits
Scan type : Progressive
Bits/(Pixel*Frame) : 0.099
Stream size : 2.25 GiB (88%)
Language : English
Codec configuration box : avc

Dragon Gate Kobe Pro Wrestling Festival

Audio
ID : 2
Format : AAC LC
Format/Info : Advanced Audio
Codec ID : mp4a-40-2
Duration : 5 h 12 min
Bit rate mode : Constant
Bit rate : 128 kb/s
Channel(s) : 2 channels
Channel layout : L R
Sampling rate : 44.1 kHz
Frame rate : 43.066 FPS (1024 SPF)
Compression mode : Lossy
Stream size : 286 MiB (11%)
Title : Stereo
Language : English
Default : Yes
Alternate group : 1

Dragon Gate Kobe Pro Wrestling Festival

Complete name : 2021.08.01.Dragon.Gate.Kobe.Pro.Wrestling.Festival.Day.2.English.mp4
Format : MPEG-4
Format profile : Base Media
Codec ID : isom
File size : 5.81 GiB
Duration : 5 h 12 min
Overall bit rate mode : Variable
Overall bit rate : 2 662 kb/s

Video
ID : 1
Format : AVC
Format/Info : Advanced Video
Duration : 5 h 12 min
Source duration : 5 h 12 min
Bit rate mode : Variable
Bit rate : 2 462 kb/s
Maximum bit rate : 2 703 kb/s
Width : 1 280 pixels
Height : 720 pixels
Display aspect ratio : 16:9
Frame rate mode : Variable
Frame rate : 29.970 (29970/1000) FPS
Minimum frame rate : 19.608 FPS
Maximum frame rate : 34.483 FPS
Original frame rate : 30.000 FPS
Standard : NTSC
Color space : YUV
Chroma subsampling : 4:2:0
Bit depth : 8 bits
Scan type : Progressive
Bits/(Pixel*Frame) : 0.089
Stream size : 5.38 GiB (92%)
Source stream size : 5.38 GiB (92%)
Color range : Limited
Color primaries : BT.709
Transfer characteristics : BT.709
Matrix coefficients : BT.709
Codec configuration box : avc

Dragon Gate Kobe Pro Wrestling Festival

Audio
ID : 2
Format : AAC LC
Format/Info : Advanced Audio
Codec ID : mp4a-40-2
Duration : 5 h 12 min
Bit rate mode : Constant
Bit rate : 192 kb/s
Channel(s) : 2 channels
Channel layout : L R
Sampling rate : 48.0 kHz
Frame rate : 46.875 FPS
Compression mode : Lossy
Stream size : 424 MiB (7%)
Default : Yes
Alternate group : 1

Complete name : 2021.08.01.Dragon.Gate.Kobe.Pro.Wrestling.Festival.Day.2.Japanese.mp4
Format : MPEG-4
Format profile : Base Media
Codec ID : isom
File size : 5.90 GiB
Duration : 5 h 17 min
Overall bit rate mode : Variable
Overall bit rate : 2 661 kb/s

Dragon Gate Kobe Pro Wrestling Festival

Video
ID : 1
Format : AVC
Format/Info : Advanced Video
Duration : 5 h 17 min
Bit rate mode : Variable
Bit rate : 2 462 kb/s
Maximum bit rate : 2 703 kb/s
Width : 1 280 pixels
Height : 720 pixels
Display aspect ratio : 16:9
Frame rate mode : Variable
Frame rate : 29.970 (29970/1000) FPS
Minimum frame rate : 19.608 FPS
Maximum frame rate : 32.258 FPS
Original frame rate : 30.000 FPS
Standard : NTSC
Color space : YUV
Chroma subsampling : 4:2:0
Bit depth : 8 bits
Scan type : Progressive
Bits/(Pixel*Frame) : 0.089
Stream size : 5.46 GiB (92%)
Color range : Limited
Color primaries : BT.709
Transfer characteristics : BT.709
Matrix coefficients : BT.709
Codec configuration box : avc

Dragon Gate Kobe Pro Wrestling Festival

Audio
ID : 2
Format : AAC LC
Codec ID : mp4a-40-2
Duration : 5 h 17 min
Bit rate mode : Constant
Bit rate : 192 kb/s
Channel(s) : 2 channels
Channel layout : L R
Sampling rate : 48.0 kHz
Frame rate : 46.875 FPS
Compression mode : Lossy
Stream size : 430 MiB (7%)
Default : Yes
Alternate group : 1

Complete name : 2021.08.01.Dragon.Gate.Kobe.Pro.Wrestling.Festival.Day.2 English.mp4
Format : MPEG-4
Format profile : Base Media
Codec ID : mp42 (mp42)
File size : 2.53 GiB
Duration : 5 h 17 min
Overall bit rate : 1 141 kb/s

Dragon Gate Kobe Pro Wrestling Festival

Video
ID : 1
Format : AVC
Format/Info : Advanced Video
Duration : 5 h 17 min
Bit rate : 1 006 kb/s
Width : 720 pixels
Height : 480 pixels
Display aspect ratio : 3:2
Frame rate mode : Constant
Frame rate : 30.000 FPS
Color space : YUV
Chroma subsampling : 4:2:0
Bit depth : 8 bits
Scan type : Progressive
Bits/(Pixel*Frame) : 0.097
Stream size : 2.23 GiB (88%)
Language : English
Codec configuration box : avcC

Audio
ID : 2
Format : AAC LC
Format/Info : Advanced Audio
Codec ID : mp4a-40-2
Duration : 5 h 17 min
Bit rate mode : Constant
Bit rate : 128 kb/s
Channel(s) : 2 channels
Channel layout : L R
Sampling rate : 44.1 kHz
Frame rate : 43.066 FPS
Compression mode : Lossy
Stream size : 290 MiB (11%)
Title : Stereo
Language : English
Default : Yes
Alternate group : 1

Dragon Gate Kobe Pro Wrestling Festival

Complete name : 2021.08.01.Dragon.Gate.Kobe.Pro.Wrestling.Festival.Day.2 Japan.mp4
Format : MPEG-4
Format profile : Base Media
Codec ID : mp42 (mp42)
File size : 2.54 GiB
Duration : 5 h 12 min
Overall bit rate : 1 165 kb/s

Video
ID : 1
Format : AVC
Format/Info : Advanced Video
Duration : 5 h 12 min
Bit rate : 1 030 kb/s
Width : 720 pixels
Height : 480 pixels
Display aspect ratio : 3:2
Frame rate mode : Constant
Frame rate : 30.000 FPS
Color space : YUV
Chroma subsampling : 4:2:0
Bit depth : 8 bits
Scan type : Progressive
Bits/(Pixel*Frame) : 0.099
Stream size : 2.25 GiB (88%)
Language : English
Codec configuration box : avc

Dragon Gate Kobe Pro Wrestling Festival

Audio
ID : 2
Format : AAC LC
Format/Info : Advanced Audio
Codec ID : mp4a-40-2
Duration : 5 h 12 min
Bit rate mode : Constant
Bit rate : 128 kb/s
Channel(s) : 2 channels
Channel layout : L R
Sampling rate : 44.1 kHz
Frame rate : 43.066 FPS (1024 SPF)
Compression mode : Lossy
Stream size : 286 MiB (11%)
Title : Stereo
Language : English
Default : Yes
Alternate group : 1

Dragon Gate Kobe Pro Wrestling Festival

Complete name : 2021.08.01.Dragon.Gate.Kobe.Pro.Wrestling.Festival.Day.2.English.mp4
Format : MPEG-4
Format profile : Base Media
Codec ID : isom
File size : 5.81 GiB
Duration : 5 h 12 min
Overall bit rate mode : Variable
Overall bit rate : 2 662 kb/s

Video
ID : 1
Format : AVC
Format/Info : Advanced Video
Duration : 5 h 12 min
Source duration : 5 h 12 min
Bit rate mode : Variable
Bit rate : 2 462 kb/s
Maximum bit rate : 2 703 kb/s
Width : 1 280 pixels
Height : 720 pixels
Display aspect ratio : 16:9
Frame rate mode : Variable
Frame rate : 29.970 (29970/1000) FPS
Minimum frame rate : 19.608 FPS
Maximum frame rate : 34.483 FPS
Original frame rate : 30.000 FPS
Standard : NTSC
Color space : YUV
Chroma subsampling : 4:2:0
Bit depth : 8 bits
Scan type : Progressive
Bits/(Pixel*Frame) : 0.089
Stream size : 5.38 GiB (92%)
Source stream size : 5.38 GiB (92%)
Color range : Limited
Color primaries : BT.709
Transfer characteristics : BT.709
Matrix coefficients : BT.709
Codec configuration box : avc

Dragon Gate Kobe Pro Wrestling Festival

Audio
ID : 2
Format : AAC LC
Format/Info : Advanced Audio
Codec ID : mp4a-40-2
Duration : 5 h 12 min
Bit rate mode : Constant
Bit rate : 192 kb/s
Channel(s) : 2 channels
Channel layout : L R
Sampling rate : 48.0 kHz
Frame rate : 46.875 FPS
Compression mode : Lossy
Stream size : 424 MiB (7%)
Default : Yes
Alternate group : 1

Complete name : 2021.08.01.Dragon.Gate.Kobe.Pro.Wrestling.Festival.Day.2.Japanese.mp4
Format : MPEG-4
Format profile : Base Media
Codec ID : isom
File size : 5.90 GiB
Duration : 5 h 17 min
Overall bit rate mode : Variable
Overall bit rate : 2 661 kb/s

Dragon Gate Kobe Pro Wrestling Festival

Video
ID : 1
Format : AVC
Format/Info : Advanced Video
Duration : 5 h 17 min
Bit rate mode : Variable
Bit rate : 2 462 kb/s
Maximum bit rate : 2 703 kb/s
Width : 1 280 pixels
Height : 720 pixels
Display aspect ratio : 16:9
Frame rate mode : Variable
Frame rate : 29.970 (29970/1000) FPS
Minimum frame rate : 19.608 FPS
Maximum frame rate : 32.258 FPS
Original frame rate : 30.000 FPS
Standard : NTSC
Color space : YUV
Chroma subsampling : 4:2:0
Bit depth : 8 bits
Scan type : Progressive
Bits/(Pixel*Frame) : 0.089
Stream size : 5.46 GiB (92%)
Color range : Limited
Color primaries : BT.709
Transfer characteristics : BT.709
Matrix coefficients : BT.709
Codec configuration box : avc

Dragon Gate Kobe Pro Wrestling Festival

Audio
ID : 2
Format : AAC LC
Codec ID : mp4a-40-2
Duration : 5 h 17 min
Bit rate mode : Constant
Bit rate : 192 kb/s
Channel(s) : 2 channels
Channel layout : L R
Sampling rate : 48.0 kHz
Frame rate : 46.875 FPS
Compression mode : Lossy
Stream size : 430 MiB (7%)
Default : Yes
Alternate group : 1

Complete name : 2021.08.01.Dragon.Gate.Kobe.Pro.Wrestling.Festival.Day.2 English.mp4
Format : MPEG-4
Format profile : Base Media
Codec ID : mp42 (mp42)
File size : 2.53 GiB
Duration : 5 h 17 min
Overall bit rate : 1 141 kb/s

Dragon Gate Kobe Pro Wrestling Festival

Video
ID : 1
Format : AVC
Format/Info : Advanced Video
Duration : 5 h 17 min
Bit rate : 1 006 kb/s
Width : 720 pixels
Height : 480 pixels
Display aspect ratio : 3:2
Frame rate mode : Constant
Frame rate : 30.000 FPS
Color space : YUV
Chroma subsampling : 4:2:0
Bit depth : 8 bits
Scan type : Progressive
Bits/(Pixel*Frame) : 0.097
Stream size : 2.23 GiB (88%)
Language : English
Codec configuration box : avcC

Audio
ID : 2
Format : AAC LC
Format/Info : Advanced Audio
Codec ID : mp4a-40-2
Duration : 5 h 17 min
Bit rate mode : Constant
Bit rate : 128 kb/s
Channel(s) : 2 channels
Channel layout : L R
Sampling rate : 44.1 kHz
Frame rate : 43.066 FPS
Compression mode : Lossy
Stream size : 290 MiB (11%)
Title : Stereo
Language : English
Default : Yes
Alternate group : 1

Dragon Gate Kobe Pro Wrestling Festival

Complete name : 2021.08.01.Dragon.Gate.Kobe.Pro.Wrestling.Festival.Day.2 Japan.mp4
Format : MPEG-4
Format profile : Base Media
Codec ID : mp42 (mp42)
File size : 2.54 GiB
Duration : 5 h 12 min
Overall bit rate : 1 165 kb/s

Video
ID : 1
Format : AVC
Format/Info : Advanced Video
Duration : 5 h 12 min
Bit rate : 1 030 kb/s
Width : 720 pixels
Height : 480 pixels
Display aspect ratio : 3:2
Frame rate mode : Constant
Frame rate : 30.000 FPS
Color space : YUV
Chroma subsampling : 4:2:0
Bit depth : 8 bits
Scan type : Progressive
Bits/(Pixel*Frame) : 0.099
Stream size : 2.25 GiB (88%)
Language : English
Codec configuration box : avc

Dragon Gate Kobe Pro Wrestling Festival

Audio
ID : 2
Format : AAC LC
Format/Info : Advanced Audio
Codec ID : mp4a-40-2
Duration : 5 h 12 min
Bit rate mode : Constant
Bit rate : 128 kb/s
Channel(s) : 2 channels
Channel layout : L R
Sampling rate : 44.1 kHz
Frame rate : 43.066 FPS (1024 SPF)
Compression mode : Lossy
Stream size : 286 MiB (11%)
Title : Stereo
Language : English
Default : Yes
Alternate group : 1

Dragon Gate Kobe Pro Wrestling Festival

Complete name : 2021.08.01.Dragon.Gate.Kobe.Pro.Wrestling.Festival.Day.2.English.mp4
Format : MPEG-4
Format profile : Base Media
Codec ID : isom
File size : 5.81 GiB
Duration : 5 h 12 min
Overall bit rate mode : Variable
Overall bit rate : 2 662 kb/s

Video
ID : 1
Format : AVC
Format/Info : Advanced Video
Duration : 5 h 12 min
Source duration : 5 h 12 min
Bit rate mode : Variable
Bit rate : 2 462 kb/s
Maximum bit rate : 2 703 kb/s
Width : 1 280 pixels
Height : 720 pixels
Display aspect ratio : 16:9
Frame rate mode : Variable
Frame rate : 29.970 (29970/1000) FPS
Minimum frame rate : 19.608 FPS
Maximum frame rate : 34.483 FPS
Original frame rate : 30.000 FPS
Standard : NTSC
Color space : YUV
Chroma subsampling : 4:2:0
Bit depth : 8 bits
Scan type : Progressive
Bits/(Pixel*Frame) : 0.089
Stream size : 5.38 GiB (92%)
Source stream size : 5.38 GiB (92%)
Color range : Limited
Color primaries : BT.709
Transfer characteristics : BT.709
Matrix coefficients : BT.709
Codec configuration box : avc

Dragon Gate Kobe Pro Wrestling Festival

Audio
ID : 2
Format : AAC LC
Format/Info : Advanced Audio
Codec ID : mp4a-40-2
Duration : 5 h 12 min
Bit rate mode : Constant
Bit rate : 192 kb/s
Channel(s) : 2 channels
Channel layout : L R
Sampling rate : 48.0 kHz
Frame rate : 46.875 FPS
Compression mode : Lossy
Stream size : 424 MiB (7%)
Default : Yes
Alternate group : 1

Complete name : 2021.08.01.Dragon.Gate.Kobe.Pro.Wrestling.Festival.Day.2.Japanese.mp4
Format : MPEG-4
Format profile : Base Media
Codec ID : isom
File size : 5.90 GiB
Duration : 5 h 17 min
Overall bit rate mode : Variable
Overall bit rate : 2 661 kb/s

Dragon Gate Kobe Pro Wrestling Festival

Video
ID : 1
Format : AVC
Format/Info : Advanced Video
Duration : 5 h 17 min
Bit rate mode : Variable
Bit rate : 2 462 kb/s
Maximum bit rate : 2 703 kb/s
Width : 1 280 pixels
Height : 720 pixels
Display aspect ratio : 16:9
Frame rate mode : Variable
Frame rate : 29.970 (29970/1000) FPS
Minimum frame rate : 19.608 FPS
Maximum frame rate : 32.258 FPS
Original frame rate : 30.000 FPS
Standard : NTSC
Color space : YUV
Chroma subsampling : 4:2:0
Bit depth : 8 bits
Scan type : Progressive
Bits/(Pixel*Frame) : 0.089
Stream size : 5.46 GiB (92%)
Color range : Limited
Color primaries : BT.709
Transfer characteristics : BT.709
Matrix coefficients : BT.709
Codec configuration box : avc

Dragon Gate Kobe Pro Wrestling Festival

Audio
ID : 2
Format : AAC LC
Codec ID : mp4a-40-2
Duration : 5 h 17 min
Bit rate mode : Constant
Bit rate : 192 kb/s
Channel(s) : 2 channels
Channel layout : L R
Sampling rate : 48.0 kHz
Frame rate : 46.875 FPS
Compression mode : Lossy
Stream size : 430 MiB (7%)
Default : Yes
Alternate group : 1

Complete name : 2021.08.01.Dragon.Gate.Kobe.Pro.Wrestling.Festival.Day.2 English.mp4
Format : MPEG-4
Format profile : Base Media
Codec ID : mp42 (mp42)
File size : 2.53 GiB
Duration : 5 h 17 min
Overall bit rate : 1 141 kb/s

Dragon Gate Kobe Pro Wrestling Festival

Video
ID : 1
Format : AVC
Format/Info : Advanced Video
Duration : 5 h 17 min
Bit rate : 1 006 kb/s
Width : 720 pixels
Height : 480 pixels
Display aspect ratio : 3:2
Frame rate mode : Constant
Frame rate : 30.000 FPS
Color space : YUV
Chroma subsampling : 4:2:0
Bit depth : 8 bits
Scan type : Progressive
Bits/(Pixel*Frame) : 0.097
Stream size : 2.23 GiB (88%)
Language : English
Codec configuration box : avcC

Audio
ID : 2
Format : AAC LC
Format/Info : Advanced Audio
Codec ID : mp4a-40-2
Duration : 5 h 17 min
Bit rate mode : Constant
Bit rate : 128 kb/s
Channel(s) : 2 channels
Channel layout : L R
Sampling rate : 44.1 kHz
Frame rate : 43.066 FPS
Compression mode : Lossy
Stream size : 290 MiB (11%)
Title : Stereo
Language : English
Default : Yes
Alternate group : 1

Dragon Gate Kobe Pro Wrestling Festival

Complete name : 2021.08.01.Dragon.Gate.Kobe.Pro.Wrestling.Festival.Day.2 Japan.mp4
Format : MPEG-4
Format profile : Base Media
Codec ID : mp42 (mp42)
File size : 2.54 GiB
Duration : 5 h 12 min
Overall bit rate : 1 165 kb/s

Video
ID : 1
Format : AVC
Format/Info : Advanced Video
Duration : 5 h 12 min
Bit rate : 1 030 kb/s
Width : 720 pixels
Height : 480 pixels
Display aspect ratio : 3:2
Frame rate mode : Constant
Frame rate : 30.000 FPS
Color space : YUV
Chroma subsampling : 4:2:0
Bit depth : 8 bits
Scan type : Progressive
Bits/(Pixel*Frame) : 0.099
Stream size : 2.25 GiB (88%)
Language : English
Codec configuration box : avc

Dragon Gate Kobe Pro Wrestling Festival

Audio
ID : 2
Format : AAC LC
Format/Info : Advanced Audio
Codec ID : mp4a-40-2
Duration : 5 h 12 min
Bit rate mode : Constant
Bit rate : 128 kb/s
Channel(s) : 2 channels
Channel layout : L R
Sampling rate : 44.1 kHz
Frame rate : 43.066 FPS (1024 SPF)
Compression mode : Lossy
Stream size : 286 MiB (11%)
Title : Stereo
Language : English
Default : Yes
Alternate group : 1

Dragon Gate Kobe Pro Wrestling Festival

Complete name : 2021.08.01.Dragon.Gate.Kobe.Pro.Wrestling.Festival.Day.2.English.mp4
Format : MPEG-4
Format profile : Base Media
Codec ID : isom
File size : 5.81 GiB
Duration : 5 h 12 min
Overall bit rate mode : Variable
Overall bit rate : 2 662 kb/s

Video
ID : 1
Format : AVC
Format/Info : Advanced Video
Duration : 5 h 12 min
Source duration : 5 h 12 min
Bit rate mode : Variable
Bit rate : 2 462 kb/s
Maximum bit rate : 2 703 kb/s
Width : 1 280 pixels
Height : 720 pixels
Display aspect ratio : 16:9
Frame rate mode : Variable
Frame rate : 29.970 (29970/1000) FPS
Minimum frame rate : 19.608 FPS
Maximum frame rate : 34.483 FPS
Original frame rate : 30.000 FPS
Standard : NTSC
Color space : YUV
Chroma subsampling : 4:2:0
Bit depth : 8 bits
Scan type : Progressive
Bits/(Pixel*Frame) : 0.089
Stream size : 5.38 GiB (92%)
Source stream size : 5.38 GiB (92%)
Color range : Limited
Color primaries : BT.709
Transfer characteristics : BT.709
Matrix coefficients : BT.709
Codec configuration box : avc

Dragon Gate Kobe Pro Wrestling Festival

Audio
ID : 2
Format : AAC LC
Format/Info : Advanced Audio
Codec ID : mp4a-40-2
Duration : 5 h 12 min
Bit rate mode : Constant
Bit rate : 192 kb/s
Channel(s) : 2 channels
Channel layout : L R
Sampling rate : 48.0 kHz
Frame rate : 46.875 FPS
Compression mode : Lossy
Stream size : 424 MiB (7%)
Default : Yes
Alternate group : 1

Complete name : 2021.08.01.Dragon.Gate.Kobe.Pro.Wrestling.Festival.Day.2.Japanese.mp4
Format : MPEG-4
Format profile : Base Media
Codec ID : isom
File size : 5.90 GiB
Duration : 5 h 17 min
Overall bit rate mode : Variable
Overall bit rate : 2 661 kb/s

Dragon Gate Kobe Pro Wrestling Festival

Video
ID : 1
Format : AVC
Format/Info : Advanced Video
Duration : 5 h 17 min
Bit rate mode : Variable
Bit rate : 2 462 kb/s
Maximum bit rate : 2 703 kb/s
Width : 1 280 pixels
Height : 720 pixels
Display aspect ratio : 16:9
Frame rate mode : Variable
Frame rate : 29.970 (29970/1000) FPS
Minimum frame rate : 19.608 FPS
Maximum frame rate : 32.258 FPS
Original frame rate : 30.000 FPS
Standard : NTSC
Color space : YUV
Chroma subsampling : 4:2:0
Bit depth : 8 bits
Scan type : Progressive
Bits/(Pixel*Frame) : 0.089
Stream size : 5.46 GiB (92%)
Color range : Limited
Color primaries : BT.709
Transfer characteristics : BT.709
Matrix coefficients : BT.709
Codec configuration box : avc

Dragon Gate Kobe Pro Wrestling Festival

Audio
ID : 2
Format : AAC LC
Codec ID : mp4a-40-2
Duration : 5 h 17 min
Bit rate mode : Constant
Bit rate : 192 kb/s
Channel(s) : 2 channels
Channel layout : L R
Sampling rate : 48.0 kHz
Frame rate : 46.875 FPS
Compression mode : Lossy
Stream size : 430 MiB (7%)
Default : Yes
Alternate group : 1

Complete name : 2021.08.01.Dragon.Gate.Kobe.Pro.Wrestling.Festival.Day.2 English.mp4
Format : MPEG-4
Format profile : Base Media
Codec ID : mp42 (mp42)
File size : 2.53 GiB
Duration : 5 h 17 min
Overall bit rate : 1 141 kb/s

Dragon Gate Kobe Pro Wrestling Festival

Video
ID : 1
Format : AVC
Format/Info : Advanced Video
Duration : 5 h 17 min
Bit rate : 1 006 kb/s
Width : 720 pixels
Height : 480 pixels
Display aspect ratio : 3:2
Frame rate mode : Constant
Frame rate : 30.000 FPS
Color space : YUV
Chroma subsampling : 4:2:0
Bit depth : 8 bits
Scan type : Progressive
Bits/(Pixel*Frame) : 0.097
Stream size : 2.23 GiB (88%)
Language : English
Codec configuration box : avcC

Audio
ID : 2
Format : AAC LC
Format/Info : Advanced Audio
Codec ID : mp4a-40-2
Duration : 5 h 17 min
Bit rate mode : Constant
Bit rate : 128 kb/s
Channel(s) : 2 channels
Channel layout : L R
Sampling rate : 44.1 kHz
Frame rate : 43.066 FPS
Compression mode : Lossy
Stream size : 290 MiB (11%)
Title : Stereo
Language : English
Default : Yes
Alternate group : 1

Dragon Gate Kobe Pro Wrestling Festival

Complete name : 2021.08.01.Dragon.Gate.Kobe.Pro.Wrestling.Festival.Day.2 Japan.mp4
Format : MPEG-4
Format profile : Base Media
Codec ID : mp42 (mp42)
File size : 2.54 GiB
Duration : 5 h 12 min
Overall bit rate : 1 165 kb/s

Video
ID : 1
Format : AVC
Format/Info : Advanced Video
Duration : 5 h 12 min
Bit rate : 1 030 kb/s
Width : 720 pixels
Height : 480 pixels
Display aspect ratio : 3:2
Frame rate mode : Constant
Frame rate : 30.000 FPS
Color space : YUV
Chroma subsampling : 4:2:0
Bit depth : 8 bits
Scan type : Progressive
Bits/(Pixel*Frame) : 0.099
Stream size : 2.25 GiB (88%)
Language : English
Codec configuration box : avc

Dragon Gate Kobe Pro Wrestling Festival

Audio
ID : 2
Format : AAC LC
Format/Info : Advanced Audio
Codec ID : mp4a-40-2
Duration : 5 h 12 min
Bit rate mode : Constant
Bit rate : 128 kb/s
Channel(s) : 2 channels
Channel layout : L R
Sampling rate : 44.1 kHz
Frame rate : 43.066 FPS (1024 SPF)
Compression mode : Lossy
Stream size : 286 MiB (11%)
Title : Stereo
Language : English
Default : Yes
Alternate group : 1

Dragon Gate Kobe Pro Wrestling Festival

 

[collapse]

 

 

https://dx-tv.com/

You May Also Like

Leave a Reply

Your email address will not be published. Required fields are marked *

This site uses Akismet to reduce spam. Learn how your comment data is processed.