Download WWE clash of champions 2020 720p HDTV DX-TV

WWE clash of champions PPV 2020 Feed 720p Full HDTV DX-TV

 

Download WWE clash of champions

 

 Watch WWE clash of champions

Download WWE clash of champions 2020 720p HDTV DX-TV

 

 

WWE Intercontinental Championship: Jeff Hardy (c) vs AJ Styles vs. Sami Zayn [Triple Threat Ladder Match]

This one has night-stealing classic written all over it, doesn’t it?

Holding the strap is Jeff Hardy, eager to keep what he has and prove (not for the first time) that with Matt over in AEW these days he’s more than just half a Hardy Boyz.

Plus this is a ladder match. Jeff Hardy in a ladder match against ANYONE is always going to be worth watching.

Then you’ve got Sami Zayn, who never actually lost his belt in a match but gave it up to sit out (hopefully) the worst of the pandemic.

Download WWE clash of champions

And then there’s AJ Styles. Yes, everyone knew just how good he was before his time in WWE, but it’s worth restating how well he’s done in the last four years.

After leaping straight to the main roster in the Royal Rumble he feueded with everyone from Roman Reigns and Chris Jericho to (most memorably?) John Cena.

He’s been a two-time WWE Champion, one-time US Champ and already held the Intercontinental Championship once.

Most indie imports flatter to decieve when they make the jump to WWE, especially if they’re on the wrong side of 35. AJ Styles has actually delivered.And he’s gonna deliver once more.

PREDICTION: AJ Styles

Download WWE clash of champions

Complete name : WWE.Clash.OF.Champions.2020.PPV.720p.HDTV.x264 DX-TV.mp4
Format : MPEG-4
Format profile : Base Media
Codec ID : isom
File size : 11.2 GiB
Duration : 3 h 13 min
Overall bit rate : 8 302 kb/s
Writing application : Lavf58.25.100

Download WWE clash of champions

Video
ID : 1
Format : AVC
Duration : 3 h 13 min
Bit rate : 7 974 kb/s
Width : 1 280 pixels
Height : 720 pixels
Display aspect ratio : 16:9
Frame rate mode : Constant
Frame rate : 50.000 FPS
Color space : YUV
Chroma : 4:2:0
Bit depth : 8 bits
Scan type : Progressive
Bits/(Pixel*Frame) : 0.173
Stream size : 10.8 GiB (96%)
Language : English
Codec configuration box : avcC

Download WWE clash of champions

Audio
ID : 2
Format : AC-3
Format/Info : Audio Coding 3
Commercial name : Dolby Digital
Codec ID : ac-3
Duration : 3 h 13 min
Bit rate mode : Constant
Bit rate : 320 kb/s
Channel(s) : 6 channels
Channel layout : L R C LFE Ls Rs
Sampling rate : 48.0 kHz
Frame rate : 31.250 FPS (1536 SPF)
Compression mode : Lossy
Stream size : 443 MiB (4%)
Language : English
Service kind : Complete Main
Default : Yes
Alternate group : 1

 

 

 

Download WWE clash of champions 2020 720p HDTV DX-TV

 

 

 

 

Watch online

 

 

 

 

 

Server 1

 

 

 

 

Download WWE clash of champions

 

 

 

 

Server-2

 

 

 

watch now

 

 

 

 

Server-3

 

 

 

watch now

 

 

 

 

Uploaded By Site DX-TV.com

 

 

 

 

Download Free Links with normal and high Speed [ more 15 hosts ]  

 

 

Part 1

 

http://shrt10.com/fjmeJF
http://shrt10.com/JXLasuy
http://shrt10.com/sVuIc4a
http://shrt10.com/EvWvx5
http://shrt10.com/wrJ7tAiQ
http://shrt10.com/uA0HF
http://shrt10.com/eEH1AbzDT
http://shrt10.com/Iyv2UWT92
http://shrt10.com/GdokuDn
http://shrt10.com/HwOWO
http://shrt10.com/N2TW4NK7
http://shrt10.com/2gNFQs

 

Part 2

 

http://shrt10.com/k2Bt3r9
http://shrt10.com/VLgBjba
http://shrt10.com/RpPILytI
http://shrt10.com/aWyd2Nr
http://shrt10.com/KM8eAh
http://shrt10.com/se17YhNF6
http://shrt10.com/tFnQOAuH8
http://shrt10.com/fqlvvHd
http://shrt10.com/2d4Iid
http://shrt10.com/tX8OUTU
http://shrt10.com/d6bBj8dK
http://shrt10.com/EUAyx

 

 

 

Part 3

 

http://shrt10.com/RYKaO
http://shrt10.com/g2dBuZHp
http://shrt10.com/TD8tWTWO
http://shrt10.com/kuFLal9WA
http://shrt10.com/4BRGn
http://shrt10.com/1OO4D7
http://shrt10.com/Zo5sE
http://shrt10.com/PUQN2G
http://shrt10.com/T4vQ6Gucn
http://shrt10.com/Mg2Izgs4
http://shrt10.com/r7Wf6
http://shrt10.com/ptV8lhM
http://shrt10.com/udPJu

 

 

 

 

 

 

Download Links with premium High Speed   

 

 

 

11 GB Link

 

rapidgator.net

 

 

 

 

 

 

dx-tv.com

 

urlfree.net

Leave a Reply

Your email address will not be published. Required fields are marked *

This site uses Akismet to reduce spam. Learn how your comment data is processed.